Good Teen Tube Sexy Young Naked Girls Movies 1383

8 Teen XXX - Teen Sex 1386Good Teen Tube Sexy Young Naked Girls Movies 1380

Posted in Amateur, HD Porn, Sex Movies, Teen | 12239 Views |


Rate this girl !!!




\r\n\r\nhttp://img102.imagetwist.com/i/05200/ummapzzxz4rq.jpg\r\n\r\n Link(348 Mb||24:11||1280*720||MP4)



DOWNLOAD

Keep2share.cc - Uploaded.net - Openload.co - Rapidu.net


http://ul.to/9n2x9euw
http://ryushare.com/ad2zd4g7cm02/HNRSNtr.rar
http://keep2share.cc/file/91407c6ae9008


Premium here:
uploaded.net
keep2share.cc
rapidu.net.cc


Teens related to Good Teen Tube Sexy Young Naked Girls Movies 1383


Teen porn movies 5617 ryushare uploaded keep2share

Teen porn movies 5617

Amateur HD Porn Video 4576 ryushare uploaded keep2share

Amateur HD Porn Video 4576

www HD sex videoxxx com ryushare uploaded keep2share

www HD sex videoxxx com

Porno movies young teens lesbian 223864 ryushare uploaded keep2share

Porno movies young teens lesbian 223864

Nude Teens fucking hard 1825 ryushare uploaded keep2share

Nude Teens fucking hard 1825

xxx full hq poharn vido downlod 226036 ryushare uploaded keep2share

xxx full hq poharn vido downlod 226036

Teenage Fuck Clips 3782 ryushare uploaded keep2share

Teenage Fuck Clips 3782

Amateur Teen Sex 224595 ryushare uploaded keep2share

Amateur Teen Sex 224595

Model porno sex 3485 ryushare uploaded keep2share

Model porno sex 3485

Young Sex Movies 1335 ryushare uploaded keep2share

Young Sex Movies 1335

www hd sex world moves 226438 ryushare uploaded keep2share

www hd sex world moves 226438

HQ Sex Movies Download 1132 ryushare uploaded keep2share

HQ Sex Movies Download 1132

Amarna  – PublicAgent ryushare uploaded keep2share

Amarna – PublicAgent

download movies sexx hd ryushare uploaded keep2share

download movies sexx hd

www 8 ponr hb mp4 vibeo 226770 ryushare uploaded keep2share

www 8 ponr hb mp4 vibeo 226770

Kavol Lilien ryushare uploaded keep2share

Kavol Lilien

Long Julie Vee movies 226110 ryushare uploaded keep2share

Long Julie Vee movies 226110

HQ Sex Movies Download 1850 ryushare uploaded keep2share

HQ Sex Movies Download 1850

Girls do porn in HD 5406 ryushare uploaded keep2share

Girls do porn in HD 5406

HD Porn Videos 4330 ryushare uploaded keep2share

HD Porn Videos 4330

Teen Tits Tube, Young Girls Porn Videos 1565 ryushare uploaded keep2share

Teen Tits Tube, Young Girls Porn Videos 1565

Paula Shy – AfterParty – Sex Art ryushare uploaded keep2share

Paula Shy – AfterParty – Sex Art

Julie Vee ryushare uploaded keep2share

Julie Vee

Tube Young Sex 224260 ryushare uploaded keep2share

Tube Young Sex 224260

Brunnete Pornstar Teenage Fucked ryushare uploaded keep2share

Brunnete Pornstar Teenage Fucked

First time Sexual Films 18 sex xxx 1576 ryushare uploaded keep2share

First time Sexual Films 18 sex xxx 1576

free download hd romance porn movie 226678 ryushare uploaded keep2share

free download hd romance porn movie 226678

Nude Teens fucking hard 5262 ryushare uploaded keep2share

Nude Teens fucking hard 5262

WowGirls Livia Grace C Getting Off Without A Cock ryushare uploaded keep2share

WowGirls Livia Grace C Getting Off Without A Cock

Teenies Videos – Teen Porn, Teen Sex, XXX Free Videos 2957 ryushare uploaded keep2share

Teenies Videos – Teen Porn, Teen Sex, XXX Free Videos 2957

hd video 1080hd pron downlod direct ryushare uploaded keep2share

hd video 1080hd pron downlod direct

Free Young Porn Videos XXX Teen Porn 225792 ryushare uploaded keep2share

Free Young Porn Videos XXX Teen Porn 225792

18 xxx potn srx 226432 ryushare uploaded keep2share

18 xxx potn srx 226432

xxx movie hd colle 226176 ryushare uploaded keep2share

xxx movie hd colle 226176

Russian Girls Cumshot Compilation ryushare uploaded keep2share

Russian Girls Cumshot Compilation

Report broken links / Post a comment

You must be logged in to post a comment.



General\r\nComplete name : D:HD Teens Tube Download Porn Sex clips movies.xxxHNRSNtrHNRSNtr.mp4\r\nFormat : MPEG-4\r\nFormat profile : Base Media\r\nCodec ID : isom\r\nFile size : 348 MiB\r\nDuration : 24mn 11s\r\nOverall bit rate mode : Variable\r\nOverall bit rate : 2 012 Kbps\r\nWriting application : Lavf54.63.104\r\n\r\nVideo\r\nID : 1\r\nFormat : AVC\r\nFormat/Info : Advanced Video Codec\r\nFormat profile : [email protected]\r\nFormat settings, CABAC : Yes\r\nFormat settings, ReFrames : 4 frames\r\nCodec ID : avc1\r\nCodec ID/Info : Advanced Video Coding\r\nDuration : 24mn 11s\r\nBit rate : 1 882 Kbps\r\nWidth : 1 280 pixels\r\nHeight : 720 pixels\r\nDisplay aspect ratio : 16:9\r\nFrame rate mode : Constant\r\nFrame rate : 29.970 fps\r\nColor space : YUV\r\nChroma subsampling : 4:2:0\r\nBit depth : 8 bits\r\nScan type : Progressive\r\nBits/(Pixel*Frame) : 0.068\r\nStream size : 325 MiB (94%)\r\nWriting library : x264 core 129 r2238 9c4ba4b\r\nEncoding settings : cabac=1 / ref=3 / deblock=1:0:0 / analyse=0x3:0x113 / me=hex / subme=7 / psy=1 / psy_rd=1.00:0.00 / mixed_ref=1 / me_range=16 / chroma_me=1 / trellis=1 / 8x8dct=1 / cqm=0 / deadzone=21,11 / fast_pskip=1 / chroma_qp_offset=-2 / threads=12 / lookahead_threads=2 / sliced_threads=0 / nr=0 / decimate=1 / interlaced=0 / bluray_compat=0 / constrained_intra=0 / bframes=3 / b_pyramid=2 / b_adapt=1 / b_bias=0 / direct=1 / weightb=1 / open_gop=0 / weightp=2 / keyint=250 / keyint_min=25 / scenecut=40 / intra_refresh=0 / rc_lookahead=40 / rc=crf / mbtree=1 / crf=23.0 / qcomp=0.60 / qpmin=0 / qpmax=69 / qpstep=4 / ip_ratio=1.40 / aq=1:1.00\r\n\r\nAudio\r\nID : 2\r\nFormat : AAC\r\nFormat/Info : Advanced Audio Codec\r\nFormat profile : LC\r\nCodec ID : 40\r\nDuration : 24mn 11s\r\nDuration_LastFrame : -5ms\r\nBit rate mode : Variable\r\nBit rate : 122 Kbps\r\nMaximum bit rate : 128 Kbps\r\nChannel(s) : 2 channels\r\nChannel positions : Front: L R\r\nSampling rate : 48.0 KHz\r\nCompression mode : Lossy\r\nStream size : 21.1 MiB (6%)\r\n\r\n