GirlsDoPorn – 19 Years Old Girl – Legal Teens

Teenies Videos - Teen Porn, Teen Sex, XXX Free Videos 1152Alica - Quiet but deadly

Posted in Amateur, HD Porn, Sex Movies, Teen | 23297 Views |


Rate this girl !!!




pic\r\n\r\n \r\n

[GirlsDoPorn.com] Episode 274 – 19 Years Old Girl (08.08.2014 g) [All Sex, Hardcore, Legal Teens, Amateur Girls] [720p]

\r\n \r\n\r\n19_Years_Old.mp4



DOWNLOAD

Keep2share.cc - Uploaded.net - Openload.co - Rapidu.net


http://played.to/h2270lnsepbi
http://ryushare.com/de2kugxfsg0k/19.Y.e.ars_O.ld_HD.wmv
http://ul.to/cq469zxn/19.Y.e.ars%20O.ld%20HD.rar
http://k2s.cc/file/3a6ea401e6fbb/19.Y.e.ars_O.ld_HD.wmv


Premium here:
uploaded.net
keep2share.cc
rapidu.net.cc


Teens related to GirlsDoPorn – 19 Years Old Girl – Legal Teens


xxx new move hQ dawonlod ryushare uploaded keep2share

xxx new move hQ dawonlod

College Teen Sex 225693 ryushare uploaded keep2share

College Teen Sex 225693

Young Virgin Pussy Teen Fuck Tube 4173 ryushare uploaded keep2share

Young Virgin Pussy Teen Fuck Tube 4173

Teen xxx sex hd 224342 ryushare uploaded keep2share

Teen xxx sex hd 224342

Teenies Videos – Teen Porn, Teen Sex, XXX Free Videos 224383 ryushare uploaded keep2share

Teenies Videos – Teen Porn, Teen Sex, XXX Free Videos 224383

HD Porn Teen Sex Videos 224669 ryushare uploaded keep2share

HD Porn Teen Sex Videos 224669

Wow porn hd downloads 224896 ryushare uploaded keep2share

Wow porn hd downloads 224896

Vintage Collection – The Photographer ryushare uploaded keep2share

Vintage Collection – The Photographer

Good Teen Tube Sexy Young Naked Girls Movies 224527 ryushare uploaded keep2share

Good Teen Tube Sexy Young Naked Girls Movies 224527

Young teens tube hot girls free porn video 1296 ryushare uploaded keep2share

Young teens tube hot girls free porn video 1296

HD Teens Sex Tube Videos XxX 1816 ryushare uploaded keep2share

HD Teens Sex Tube Videos XxX 1816

WowGirls.com Vanda, Violette – Ill Teach You ryushare uploaded keep2share

WowGirls.com Vanda, Violette – Ill Teach You

Porn teen hd downloads 224873 ryushare uploaded keep2share

Porn teen hd downloads 224873

Alice – Newbie Paid for Taking a Cumshot ryushare uploaded keep2share

Alice – Newbie Paid for Taking a Cumshot

Adult Hardcore XXX Sex Videos 4120 ryushare uploaded keep2share

Adult Hardcore XXX Sex Videos 4120

Hot download sex girls movies 225819 ryushare uploaded keep2share

Hot download sex girls movies 225819

Young Sex Movies 4496 ryushare uploaded keep2share

Young Sex Movies 4496

xxxxsexvideo 226647 ryushare uploaded keep2share

xxxxsexvideo 226647

www wowgirl com sex 226357 ryushare uploaded keep2share

www wowgirl com sex 226357

Teen Sex Movies Young Porn Tube Vids 1253 ryushare uploaded keep2share

Teen Sex Movies Young Porn Tube Vids 1253

Teenies Videos – Teen Porn, Teen Sex, XXX Free Videos 5201 ryushare uploaded keep2share

Teenies Videos – Teen Porn, Teen Sex, XXX Free Videos 5201

Bella Baby – Opposites Attract ryushare uploaded keep2share

Bella Baby – Opposites Attract

HD sex movies downloads 3866 ryushare uploaded keep2share

HD sex movies downloads 3866

Young teens tube hot girls free porn video 2828 ryushare uploaded keep2share

Young teens tube hot girls free porn video 2828

Teen porn xxx 224460 ryushare uploaded keep2share

Teen porn xxx 224460

Teen porn movies 224770 ryushare uploaded keep2share

Teen porn movies 224770

Xxxx 2014massage 226629 ryushare uploaded keep2share

Xxxx 2014massage 226629

1By-Day.com Danika – Undercover Banana ryushare uploaded keep2share

1By-Day.com Danika – Undercover Banana

Hot Teen Sex 2747 ryushare uploaded keep2share

Hot Teen Sex 2747

Teenies Videos – Teen Porn, Teen Sex, XXX Free Videos 2114 ryushare uploaded keep2share

Teenies Videos – Teen Porn, Teen Sex, XXX Free Videos 2114

Teenage Fuck Clips 1591 ryushare uploaded keep2share

Teenage Fuck Clips 1591

Hardcore Sex Hub 224158 ryushare uploaded keep2share

Hardcore Sex Hub 224158

21Naturals.com Ashley ryushare uploaded keep2share

21Naturals.com Ashley

HD Teen Sex Tube 225351 ryushare uploaded keep2share

HD Teen Sex Tube 225351

Free Porn Videos Xxx Movies Pussy Porn 2744 ryushare uploaded keep2share

Free Porn Videos Xxx Movies Pussy Porn 2744

Report broken links / Post a comment

You must be logged in to post a comment.



General\r\nComplete name : D:hd teens porn download free online[GirlsDoPorn.com] Episode 274 - 19 Years Old Girl (08.08.2014 g) [All Sex, Hardcore, Legal Teens, Amateur Girls] [720p] HD.wmv\r\nFormat : Windows Media\r\nFile size : 1.71 GiB\r\nDuration : 46mn 44s\r\nOverall bit rate mode : Variable\r\nOverall bit rate : 5 240 Kbps\r\nMaximum Overall bit rate : 5 401 Kbps\r\nEncoded date : UTC 2014-08-09 01:02:33.322\r\n\r\nVideo\r\nID : 2\r\nFormat : VC-1\r\nFormat profile : [email protected]\r\nCodec ID : WMV3\r\nCodec ID/Info : Windows Media Video 9\r\nCodec ID/Hint : WMV3\r\nDescription of the codec : Windows Media Video 9 - Professional\r\nDuration : 46mn 44s\r\nBit rate mode : Constant\r\nBit rate : 5 000 Kbps\r\nWidth : 1 280 pixels\r\nHeight : 720 pixels\r\nDisplay aspect ratio : 16:9\r\nFrame rate : 29.970 fps\r\nBit depth : 8 bits\r\nCompression mode : Lossy\r\nBits/(Pixel*Frame) : 0.181\r\nStream size : 1.63 GiB (95%)\r\nLanguage : English (US)\r\nNumberOfFrames : 84050\r\n\r\nAudio\r\nID : 1\r\nFormat : WMA\r\nFormat profile : Pro\r\nCodec ID : 162\r\nCodec ID/Info : Windows Media Audio\r\nDescription of the codec : Windows Media Audio 10 Professional - 440 kbps, 44 kHz, 2 channel 24 bit 2-pass VBR\r\nDuration : 46mn 44s\r\nBit rate mode : Variable\r\nBit rate : 322 Kbps\r\nChannel(s) : 2 channels\r\nSampling rate : 44.1 KHz\r\nBit depth : 24 bits\r\nStream size : 108 MiB (6%)\r\nLanguage : English (US)\r\nNumberOfFrames : 5471\r\n\r\n