Free Young Porn Videos XXX Teen Porn 3871

Hot sex girls movies download 3874Free High Quality Sex Movies 3862

Posted in HD Porn, Pornstar, Sex Movies, Teen | 13587 Views |


Rate this girl !!!




cover\r\n\r\n1920x1080p / MP4 / 913.11 MB\r\n\r\n \r\n\r\nSCREENSHOTS:\r\n\r\nscreens\r\n\r\n 



DOWNLOAD

Keep2share.cc - Uploaded.net - Openload.co - Rapidu.net


http://ul.to/w5pk7vix/C.o.m.in.g_B.a.ck_F.or_M.or.e.mp4
http://ryushare.com/yguc2anqj5uz/C.o.m.in.g_B.a.ck_F.or_M.or.e.mp4
http://fileom.com/uiywgk2yftyt/C.o.m.in.g_B.a.ck_F.or_M.or.e.mp4.html
http://k2s.cc/file/651ea6a707b0c/C.o.m.in.g_B.a.ck_F.or_M.or.e.mp4


Premium here:
uploaded.net
keep2share.cc
rapidu.net.cc


Teens related to Free Young Porn Videos XXX Teen Porn 3871


Young Sex Movies 224073 ryushare uploaded keep2share

Young Sex Movies 224073

www 18year grils sex vedios 226269 ryushare uploaded keep2share

www 18year grils sex vedios 226269

Dani Jensen – NaughtyAmerica ryushare uploaded keep2share

Dani Jensen – NaughtyAmerica

Hot Tina, Kayla Green – Lessons in Lust ryushare uploaded keep2share

Hot Tina, Kayla Green – Lessons in Lust

xxx sexy moovi pchd download ryushare uploaded keep2share

xxx sexy moovi pchd download

HD Teens Sex Tube Videos XxX 225635 ryushare uploaded keep2share

HD Teens Sex Tube Videos XxX 225635

Nude Teens fucking hard Redhair amateur 4896 ryushare uploaded keep2share

Nude Teens fucking hard Redhair amateur 4896

Wow porn hd downloads 225170 ryushare uploaded keep2share

Wow porn hd downloads 225170

Teen xxx sex hd 5505 ryushare uploaded keep2share

Teen xxx sex hd 5505

Teen Sex Porn Videos Free Nude Teens 4683 ryushare uploaded keep2share

Teen Sex Porn Videos Free Nude Teens 4683

HD Teen Sex Tube 1127 ryushare uploaded keep2share

HD Teen Sex Tube 1127

Young XXX Tube Videos 2696 ryushare uploaded keep2share

Young XXX Tube Videos 2696

Teen acrobat sex ryushare uploaded keep2share

Teen acrobat sex

Teenage Fuck Clips 5122 ryushare uploaded keep2share

Teenage Fuck Clips 5122

Wow porn hd downloads 224274 ryushare uploaded keep2share

Wow porn hd downloads 224274

First time Sexual Films 18 sex xxx 3689 ryushare uploaded keep2share

First time Sexual Films 18 sex xxx 3689

Porn with gorgeous redhead ryushare uploaded keep2share

Porn with gorgeous redhead

Porn teen hd downloads 5256 ryushare uploaded keep2share

Porn teen hd downloads 5256

hq 18x video com 226250 ryushare uploaded keep2share

hq 18x video com 226250

Wow girls hd porn teens 224580 ryushare uploaded keep2share

Wow girls hd porn teens 224580

First time Sexual Films 18 sex xxx 223799 ryushare uploaded keep2share

First time Sexual Films 18 sex xxx 223799

www young sex perattes mp4 226746 ryushare uploaded keep2share

www young sex perattes mp4 226746

www hd sex world moves 226438 ryushare uploaded keep2share

www hd sex world moves 226438

faapy sexyi x bideos hd 226060 ryushare uploaded keep2share

faapy sexyi x bideos hd 226060

Lola Taylor – Hardcore ryushare uploaded keep2share

Lola Taylor – Hardcore

Teen Porn XXX Tube 224586 ryushare uploaded keep2share

Teen Porn XXX Tube 224586

Nubiles-Porn Sierra Nevadah – Fucking Love ryushare uploaded keep2share

Nubiles-Porn Sierra Nevadah – Fucking Love

Free High Quality Sex Movies 4375 ryushare uploaded keep2share

Free High Quality Sex Movies 4375

Free Teen Porn Videos at Teen Sex Tube XXX 5378 ryushare uploaded keep2share

Free Teen Porn Videos at Teen Sex Tube XXX 5378

Sex Teens porn movies 3015 ryushare uploaded keep2share

Sex Teens porn movies 3015

NubileFilms.com Taylor Whyte – Finally Home ryushare uploaded keep2share

NubileFilms.com Taylor Whyte – Finally Home

Teen Sex Videos Tube Movies 225164 ryushare uploaded keep2share

Teen Sex Videos Tube Movies 225164

Hardcore sex videos in the high definition quality 5296 ryushare uploaded keep2share

Hardcore sex videos in the high definition quality 5296

21 sextury hd resimler 226581 ryushare uploaded keep2share

21 sextury hd resimler 226581

Amateur Teen Sex 223903 ryushare uploaded keep2share

Amateur Teen Sex 223903

Report broken links / Post a comment

You must be logged in to post a comment.



General\r\nComplete name : D:hd tube amateur porn young girls sex direct download online movies clips\r\nryushare.com uploaded.net keep2share.cc fileom.com streamcloud.eu allmyvideos.net ul.to download porn movies clipComing_Back_For_More_HD1080.mp4\r\nFormat : MPEG-4\r\nFormat profile : Base Media\r\nCodec ID : isom\r\nFile size : 913 MiB\r\nDuration : 23mn 49s\r\nOverall bit rate mode : Variable\r\nOverall bit rate : 5 358 Kbps\r\nWriting application : Lavf55.33.100\r\n\r\nVideo\r\nID : 1\r\nFormat : AVC\r\nFormat/Info : Advanced Video Codec\r\nFormat profile : [email protected]\r\nFormat settings, CABAC : Yes\r\nFormat settings, ReFrames : 5 frames\r\nCodec ID : avc1\r\nCodec ID/Info : Advanced Video Coding\r\nDuration : 23mn 49s\r\nBit rate : 5 269 Kbps\r\nWidth : 1 920 pixels\r\nHeight : 1 080 pixels\r\nDisplay aspect ratio : 16:9\r\nFrame rate mode : Constant\r\nFrame rate : 29.970 fps\r\nColor space : YUV\r\nChroma subsampling : 4:2:0\r\nBit depth : 8 bits\r\nScan type : Progressive\r\nBits/(Pixel*Frame) : 0.085\r\nStream size : 898 MiB (98%)\r\nWriting library : x264 core 138\r\nEncoding settings : cabac=1 / ref=5 / deblock=1:-1:-1 / analyse=0x3:0x113 / me=umh / subme=8 / psy=1 / psy_rd=1.00:0.15 / mixed_ref=1 / me_range=16 / chroma_me=1 / trellis=1 / 8x8dct=1 / cqm=0 / deadzone=21,11 / fast_pskip=1 / chroma_qp_offset=-3 / threads=8 / lookahead_threads=1 / sliced_threads=0 / nr=0 / decimate=1 / interlaced=0 / bluray_compat=0 / constrained_intra=0 / bframes=3 / b_pyramid=2 / b_adapt=2 / b_bias=0 / direct=3 / weightb=1 / open_gop=0 / weightp=2 / keyint=250 / keyint_min=25 / scenecut=40 / intra_refresh=0 / rc_lookahead=50 / rc=crf / mbtree=1 / crf=20.0 / qcomp=0.60 / qpmin=0 / qpmax=69 / qpstep=4 / ip_ratio=1.40 / aq=1:1.00\r\nLanguage : Russian\r\n\r\nAudio\r\nID : 2\r\nFormat : AAC\r\nFormat/Info : Advanced Audio Codec\r\nFormat profile : LC\r\nCodec ID : 40\r\nDuration : 23mn 49s\r\nBit rate mode : Variable\r\nBit rate : 80.5 Kbps\r\nMaximum bit rate : 192 Kbps\r\nChannel(s) : 2 channels\r\nChannel positions : Front: L R\r\nSampling rate : 44.1 KHz\r\nCompression mode : Lossy\r\nStream size : 13.7 MiB (2%)\r\nLanguage : Russian\r\nRAPIDGATOR / UPLOADED / UPLOADABLE / KEEP2SHARE\r\nUPLOADED / RYUSHARE / FILEOM / KEEP2SHARE\r\n\r\nhd tube amateur porn young girls sex direct download online movies clips\r\nryushare.com uploaded.net keep2share.cc fileom.com streamcloud.eu allmyvideos.net ul.to download porn movies clip\r\n