Free Young Porn Videos XXX Teen Porn 3495

HD Sex World Videos High Definition Free Porn 3501XXX young porn sex 3489

Posted in Amateur, HD Porn, Sex Movies, Teen, Threesome | 12816 Views |


Rate this girl !!!




\r\n\r\nSize: 553 MB | Duration: 00:24:31 | Quality: 960×540 | Format: Wmv\r\n\r\n



DOWNLOAD

Keep2share.cc - Uploaded.net - Openload.co - Rapidu.net


http://fileom.com/q0voyizao81e/L.u.c.y.wmv.html
http://k2s.cc/file/3343ff28e572c/L.u.c.y.wmv
http://ryushare.com/r2enbf9go4v1/L.u.c.y.wmv
http://ul.to/2h8dge1a/L.u.c.y.wmv


Premium here:
uploaded.net
keep2share.cc
rapidu.net.cc


Teens related to Free Young Porn Videos XXX Teen Porn 3495


teen porn white skin 226106 ryushare uploaded keep2share

teen porn white skin 226106

Daisy, Jasmine – Boats n Hoes ryushare uploaded keep2share

Daisy, Jasmine – Boats n Hoes

grace c Creampie-Angels ryushare uploaded keep2share

grace c Creampie-Angels

HD Teen Sex Tube 224831 ryushare uploaded keep2share

HD Teen Sex Tube 224831

Small girls and boys porn 4639 ryushare uploaded keep2share

Small girls and boys porn 4639

Young Virgin Pussy Teen Fuck Tube 1916 ryushare uploaded keep2share

Young Virgin Pussy Teen Fuck Tube 1916

Wow Girls Porn Clips download 5142 ryushare uploaded keep2share

Wow Girls Porn Clips download 5142

Defloration porn videos 720p direct download free ryushare uploaded keep2share

Defloration porn videos 720p direct download free

HD Sex World Videos High Definition Free Porn 2998 ryushare uploaded keep2share

HD Sex World Videos High Definition Free Porn 2998

direct link hd porn 225998 ryushare uploaded keep2share

direct link hd porn 225998

Alexia aka Kitty Jane (Secret Part I) ryushare uploaded keep2share

Alexia aka Kitty Jane (Secret Part I)

HD Porn Videos 225579 ryushare uploaded keep2share

HD Porn Videos 225579

Watch Teen Sex Videos HD 1246 ryushare uploaded keep2share

Watch Teen Sex Videos HD 1246

Orgy with young teens ryushare uploaded keep2share

Orgy with young teens

hd xxx com dawonlod vedeo 226419 ryushare uploaded keep2share

hd xxx com dawonlod vedeo 226419

HD Teens Sex Tube Videos XxX 225345 ryushare uploaded keep2share

HD Teens Sex Tube Videos XxX 225345

Kiki – Panties Free Day ryushare uploaded keep2share

Kiki – Panties Free Day

Denni Fresh – 21Naturals ryushare uploaded keep2share

Denni Fresh – 21Naturals

New sexy video pc hd ryushare uploaded keep2share

New sexy video pc hd

8 Teen XXX – Teen Sex 5638 ryushare uploaded keep2share

8 Teen XXX – Teen Sex 5638

Free Teen Porn Videos at Teen Sex Tube XXX 5283 ryushare uploaded keep2share

Free Teen Porn Videos at Teen Sex Tube XXX 5283

Free Porn Videos Xxx Movies Pussy Porn 1568 ryushare uploaded keep2share

Free Porn Videos Xxx Movies Pussy Porn 1568

www virgin sex hd porn videos com ryushare uploaded keep2share

www virgin sex hd porn videos com

xxx movies hd english ryushare uploaded keep2share

xxx movies hd english

Hot Teen Sex HD videos 2678 ryushare uploaded keep2share

Hot Teen Sex HD videos 2678

HD sex movies downloads 3866 ryushare uploaded keep2share

HD sex movies downloads 3866

Teen Sex Movies Young Porn Tube Vids 2420 ryushare uploaded keep2share

Teen Sex Movies Young Porn Tube Vids 2420

Porn party teen girls 225405 ryushare uploaded keep2share

Porn party teen girls 225405

Ariana Marie – Babysitter ryushare uploaded keep2share

Ariana Marie – Babysitter

Young 720p hd porn 3634 ryushare uploaded keep2share

Young 720p hd porn 3634

yes-xxx-teen-sex-movies ryushare uploaded keep2share

yes-xxx-teen-sex-movies

Sweet Teen Porn – Young Porn Videos 224044 ryushare uploaded keep2share

Sweet Teen Porn – Young Porn Videos 224044

Morgan Brooke – Very hot teen – Tease.Me ryushare uploaded keep2share

Morgan Brooke – Very hot teen – Tease.Me

Wow Girls Porn Clips download 224663 ryushare uploaded keep2share

Wow Girls Porn Clips download 224663

Young xxx 225438 ryushare uploaded keep2share

Young xxx 225438

Report broken links / Post a comment

You must be logged in to post a comment.



General\r\nComplete name : D:hd teen mania porn babes ryushare keep2share uploaded easybytez fileomL.u.c.y.wmv\r\nFormat : Windows Media\r\nFile size : 554 MiB\r\nDuration : 24mn 31s\r\nOverall bit rate mode : Constant\r\nOverall bit rate : 3 158 Kbps\r\nMaximum Overall bit rate : 3 173 Kbps\r\nEncoded date : UTC 2012-07-09 17:50:23.578\r\nSfOriginalFPS : 299700\r\n\r\nVideo\r\nID : 2\r\nFormat : VC-1\r\nFormat profile : [email protected]\r\nCodec ID : WMV3\r\nCodec ID/Info : Windows Media Video 9\r\nCodec ID/Hint : WMV3\r\nDescription of the codec : Windows Media Video 9 - Professional\r\nDuration : 24mn 31s\r\nBit rate mode : Constant\r\nBit rate : 3 130 Kbps\r\nWidth : 960 pixels\r\nHeight : 540 pixels\r\nDisplay aspect ratio : 16:9\r\nFrame rate : 29.970 fps\r\nColor space : YUV\r\nChroma subsampling : 4:2:0\r\nBit depth : 8 bits\r\nScan type : Progressive\r\nCompression mode : Lossy\r\nBits/(Pixel*Frame) : 0.201\r\nStream size : 549 MiB (99%)\r\nLanguage : Russian\r\n\r\nAudio\r\nID : 1\r\nFormat : WMA\r\nFormat version : Version 2\r\nCodec ID : 161\r\nCodec ID/Info : Windows Media Audio\r\nDescription of the codec : Windows Media Audio 9.2 - 16 kbps, 22 kHz, mono (A/V) 1-pass CBR\r\nDuration : 24mn 31s\r\nBit rate mode : Constant\r\nBit rate : 16.0 Kbps\r\nChannel(s) : 1 channel\r\nSampling rate : 22.05 KHz\r\nBit depth : 16 bits\r\nStream size : 2.81 MiB (1%)\r\nLanguage : Russian\r\n\r\n