Free Porn Videos Xxx Movies Pussy Porn 3704

Hot Teen Sex 3705Hd young videos 3698

Posted in Amateur, HD Porn, Sex Movies, Teen | 21172 Views |


Rate this girl !!!




\r\n\r\n



DOWNLOAD

Keep2share.cc - Uploaded.net - Openload.co - Rapidu.net


http://ryushare.com/5yyxpz20dzup/FSNGTSnt.mp4
http://ul.to/npsfykd7/FSNGTSnt.mp4
http://k2s.cc/file/5b934eb7c980a/FSNGTSnt.mp4
http://fileom.com/16i9qzk87m14/FSNGTSnt.mp4.html


Premium here:
uploaded.net
keep2share.cc
rapidu.net.cc


Teens related to Free Porn Videos Xxx Movies Pussy Porn 3704


18OnlyGirls – Natasha – 25 Clips Video Pack ryushare uploaded keep2share

18OnlyGirls – Natasha – 25 Clips Video Pack

Teenage Fuck Clips 3405 ryushare uploaded keep2share

Teenage Fuck Clips 3405

Watch Teen Sex Videos HD 225475 ryushare uploaded keep2share

Watch Teen Sex Videos HD 225475

Porn teen hd downloads 224517 ryushare uploaded keep2share

Porn teen hd downloads 224517

Kaylee Haze – Wet Pussy Play ryushare uploaded keep2share

Kaylee Haze – Wet Pussy Play

8 Teen XXX – Teen Sex 224806 ryushare uploaded keep2share

8 Teen XXX – Teen Sex 224806

Teen Sex Movies Young Porn Tube Vids 225963 ryushare uploaded keep2share

Teen Sex Movies Young Porn Tube Vids 225963

Free Teen Porn Videos at Teen Sex Tube XXX 1416 ryushare uploaded keep2share

Free Teen Porn Videos at Teen Sex Tube XXX 1416

Teen porn xxx 224836 ryushare uploaded keep2share

Teen porn xxx 224836

teenmania hd video download 226090 ryushare uploaded keep2share

teenmania hd video download 226090

High Definition Movies on HD Teen Porn XXX Tube 1708 ryushare uploaded keep2share

High Definition Movies on HD Teen Porn XXX Tube 1708

hd format sex video free downloado 226108 ryushare uploaded keep2share

hd format sex video free downloado 226108

breezer hd porn video 226339 ryushare uploaded keep2share

breezer hd porn video 226339

Wow girls hd porn teens 224337 ryushare uploaded keep2share

Wow girls hd porn teens 224337

Hd quality – Teen sex video 3481 ryushare uploaded keep2share

Hd quality – Teen sex video 3481

me bbxxxhd 226343 ryushare uploaded keep2share

me bbxxxhd 226343

Wow girls downloads hd 224557 ryushare uploaded keep2share

Wow girls downloads hd 224557

wow xxxvideoshd ryushare uploaded keep2share

wow xxxvideoshd

www 18porn com/hot hd video 226736 ryushare uploaded keep2share

www 18porn com/hot hd video 226736

Beautiful brunette teen fucking from behind Hd ryushare uploaded keep2share

Beautiful brunette teen fucking from behind Hd

sex compress videos 226457 ryushare uploaded keep2share

sex compress videos 226457

Wow Porn Movies download) 224417 ryushare uploaded keep2share

Wow Porn Movies download) 224417

Porno movies young teens lesbian 5426 ryushare uploaded keep2share

Porno movies young teens lesbian 5426

8 Teen XXX – Teen Sex 225082 ryushare uploaded keep2share

8 Teen XXX – Teen Sex 225082

bbb wwa com xxx hd 226367 ryushare uploaded keep2share

bbb wwa com xxx hd 226367

Young Sex Movies 4459 ryushare uploaded keep2share

Young Sex Movies 4459

Young Sex Movies 3968 ryushare uploaded keep2share

Young Sex Movies 3968

free sex movies ppran ryushare uploaded keep2share

free sex movies ppran

Teen Tits Tube, Young Girls Porn Videos 225965 ryushare uploaded keep2share

Teen Tits Tube, Young Girls Porn Videos 225965

porn move i hd and small size 226779 ryushare uploaded keep2share

porn move i hd and small size 226779

Porn teen hd downloads 224721 ryushare uploaded keep2share

Porn teen hd downloads 224721

HD Porn Videos 225943 ryushare uploaded keep2share

HD Porn Videos 225943

sex 18 xxxxxxxxx hd ryushare uploaded keep2share

sex 18 xxxxxxxxx hd

Hd quality – Teen sex video 225531 ryushare uploaded keep2share

Hd quality – Teen sex video 225531

Watch Teen Sex Videos HD 225525 ryushare uploaded keep2share

Watch Teen Sex Videos HD 225525

Report broken links / Post a comment

You must be logged in to post a comment.



General\r\nComplete name : D:hd pornstars teens ryushare.com uploaded.net keep2share.cc fileom.com download porn movies clips FSNGTSnt.mp4\r\nFormat : MPEG-4\r\nFormat profile : Base Media / Version 2\r\nCodec ID : mp42\r\nFile size : 849 MiB\r\nDuration : 19mn 26s\r\nOverall bit rate : 6 106 Kbps\r\nEncoded date : UTC 2014-05-14 15:54:09\r\nTagged date : UTC 2014-05-14 15:55:31\r\n\r\nVideo\r\nID : 1\r\nFormat : AVC\r\nFormat/Info : Advanced Video Codec\r\nFormat profile : [email protected]\r\nFormat settings, CABAC : No\r\nFormat settings, ReFrames : 2 frames\r\nFormat settings, GOP : M=1, N=30\r\nCodec ID : avc1\r\nCodec ID/Info : Advanced Video Coding\r\nDuration : 19mn 26s\r\nBit rate : 5 767 Kbps\r\nWidth : 1 920 pixels\r\nHeight : 1 080 pixels\r\nDisplay aspect ratio : 16:9\r\nFrame rate mode : Constant\r\nFrame rate : 29.970 fps\r\nColor space : YUV\r\nChroma subsampling : 4:2:0\r\nBit depth : 8 bits\r\nScan type : Progressive\r\nBits/(Pixel*Frame) : 0.093\r\nStream size : 802 MiB (94%)\r\nTitle : Žáðàáîò÷èê âèäåî Apple\r\nLanguage : English\r\nEncoded date : UTC 2014-05-14 15:53:06\r\nTagged date : UTC 2014-05-14 15:55:31\r\nColor primaries : BT.709\r\nTransfer characteristics : BT.709\r\nMatrix coefficients : BT.709\r\n\r\nAudio\r\nID : 2\r\nFormat : AAC\r\nFormat/Info : Advanced Audio Codec\r\nFormat profile : LC\r\nCodec ID : 40\r\nDuration : 19mn 26s\r\nSource duration : 19mn 26s\r\nBit rate mode : Constant\r\nBit rate : 101 Kbps\r\nNominal bit rate : 128 Kbps\r\nChannel(s) : 2 channels\r\nChannel positions : Front: L R\r\nSampling rate : 44.1 KHz\r\nCompression mode : Lossy\r\nStream size : 14.0 MiB (2%)\r\nSource stream size : 14.0 MiB (2%)\r\nTitle : Žáðàáîò÷èê çâóêà Apple\r\nLanguage : English\r\nEncoded date : UTC 2014-05-14 15:53:06\r\nTagged date : UTC 2014-05-14 15:55:31\r\n\r\nOther #1\r\nID : 3\r\nType : Hint\r\nFormat : RTP\r\nCodec ID : rtp \r\nDuration : 19mn 26s\r\nLanguage : English\r\nEncoded date : UTC 2014-05-14 15:53:06\r\nTagged date : UTC 2014-05-14 15:55:31\r\nSource duration : 1166385\r\nSource frame count : 12613\r\nSource stream size : 1207328\r\nStream size : 1207280\r\nBit rate mode : VBR\r\n\r\nOther #2\r\nID : 4\r\nType : Hint\r\nFormat : RTP\r\nCodec ID : rtp \r\nDuration : 19mn 26s\r\nLanguage : English\r\nEncoded date : UTC 2014-05-14 15:53:39\r\nTagged date : UTC 2014-05-14 15:55:31\r\n\r\nhd pornstars teens ryushare.com uploaded.net keep2share.cc fileom.com download porn movies clips