Free Porn Videos Xxx Movies Pussy Porn 1568

First time Sexual Films 18 sex xxx 1576Teen Tits Tube, Young Girls Porn Videos 1565

Posted in HD Porn, Pornstar, Sex Movies, Teen | 144305 Views |


Rate this girl !!!




\r\n\r\n\r\n\r\n\r\n\r\n\r\n Link(953 Mb||25:46||1280*720||MKV)



DOWNLOAD

Keep2share.cc - Uploaded.net - Openload.co - Rapidu.net


http://keep2share.cc/file/b94792be43d47
http://ryushare.com/0ejdmnevfo4x/STHNRSty.rar
http://ul.to/nn06c3do


Premium here:
uploaded.net
keep2share.cc
rapidu.net.cc


Teens related to Free Porn Videos Xxx Movies Pussy Porn 1568


Porn teen hd downloads 224098 ryushare uploaded keep2share

Porn teen hd downloads 224098

sax yas xxx ryushare uploaded keep2share

sax yas xxx

hq hd pron pussy free downlode 226077 ryushare uploaded keep2share

hq hd pron pussy free downlode 226077

Free High Quality Sex Movies 3471 ryushare uploaded keep2share

Free High Quality Sex Movies 3471

Movies Young legal porn 5451 ryushare uploaded keep2share

Movies Young legal porn 5451

valeria alexa xxx ryushare uploaded keep2share

valeria alexa xxx

Young Sex Movies 224539 ryushare uploaded keep2share

Young Sex Movies 224539

HD Porn Videos 5360 ryushare uploaded keep2share

HD Porn Videos 5360

teen porno sites xxx ryushare uploaded keep2share

teen porno sites xxx

xxx hd smoll garls video com ryushare uploaded keep2share

xxx hd smoll garls video com

Hot brunette – blowjob and fucked ryushare uploaded keep2share

Hot brunette – blowjob and fucked

Aiko Mai, Angellina – Sweet Like Candy ryushare uploaded keep2share

Aiko Mai, Angellina – Sweet Like Candy

Movies Young legal porn 224470 ryushare uploaded keep2share

Movies Young legal porn 224470

www teen fuckhd image gallary com 226522 ryushare uploaded keep2share

www teen fuckhd image gallary com 226522

pornosexxx hd 226414 ryushare uploaded keep2share

pornosexxx hd 226414

xxx hd art videos download 226012 ryushare uploaded keep2share

xxx hd art videos download 226012

Teen porn movies 1607 ryushare uploaded keep2share

Teen porn movies 1607

HD Teen Sex Tube 224188 ryushare uploaded keep2share

HD Teen Sex Tube 224188

High Definition Movies on HD 5169 ryushare uploaded keep2share

High Definition Movies on HD 5169

18xGirls Fucked Virgin teen ryushare uploaded keep2share

18xGirls Fucked Virgin teen

antartika poeno sex 226048 ryushare uploaded keep2share

antartika poeno sex 226048

Hd quality – Teen sex video 4257 ryushare uploaded keep2share

Hd quality – Teen sex video 4257

Young xxx 224648 ryushare uploaded keep2share

Young xxx 224648

Girls do porn in HD 224007 ryushare uploaded keep2share

Girls do porn in HD 224007

teensex mp4 hd download 226542 ryushare uploaded keep2share

teensex mp4 hd download 226542

Girls do porn downloads 3828 ryushare uploaded keep2share

Girls do porn downloads 3828

new fuck photo hd download ryushare uploaded keep2share

new fuck photo hd download

VIOLA BAILEY’S and BEATA UNDINE – HARD – BED + 1 ryushare uploaded keep2share

VIOLA BAILEY’S and BEATA UNDINE – HARD – BED + 1

www english hd and hq xxx moves com ryushare uploaded keep2share

www english hd and hq xxx moves com

[WowPorn.com] Daphne & Ria Sun (Thorough Fingers / ryushare uploaded keep2share

[WowPorn.com] Daphne & Ria Sun (Thorough Fingers /

8teen sex free movies com ryushare uploaded keep2share

8teen sex free movies com

Teen porn movies 3006 ryushare uploaded keep2share

Teen porn movies 3006

Wow porn tube movies 5631 ryushare uploaded keep2share

Wow porn tube movies 5631

Watch Teen Sex Videos HD 4135 ryushare uploaded keep2share

Watch Teen Sex Videos HD 4135

High Definition Movies on HD 225408 ryushare uploaded keep2share

High Definition Movies on HD 225408

Comments (1)

Report broken links / Post a comment

You must be logged in to post a comment.



General\r\nUnique ID : 25034827099961334121869519921466603881 (0x12D58845E3D9275CA1264E0D68287969)\r\nComplete name : D:HD Teens Download Porn Sex clips movies Tube.xxxSTHNRStySTHNRSty.mkv\r\nFormat : Matroska\r\nFormat version : Version 2\r\nFile size : 953 MiB\r\nDuration : 25mn 46s\r\nOverall bit rate : 5 169 Kbps\r\nWriting application : Lavf54.29.104\r\nWriting library : Lavf54.29.104\r\n\r\nVideo\r\nID : 1\r\nFormat : AVC\r\nFormat/Info : Advanced Video Codec\r\nFormat profile : [email protected]\r\nFormat settings, CABAC : Yes\r\nFormat settings, ReFrames : 5 frames\r\nCodec ID : V_MPEG4/ISO/AVC\r\nDuration : 25mn 46s\r\nBit rate : 4 618 Kbps\r\nWidth : 1 280 pixels\r\nHeight : 720 pixels\r\nDisplay aspect ratio : 16:9\r\nFrame rate mode : Constant\r\nFrame rate : 23.976 fps\r\nColor space : YUV\r\nChroma subsampling : 4:2:0\r\nBit depth : 8 bits\r\nScan type : Progressive\r\nBits/(Pixel*Frame) : 0.209\r\nStream size : 851 MiB (89%)\r\nDefault : Yes\r\nForced : No\r\n\r\nAudio\r\nID : 2\r\nFormat : AC-3\r\nFormat/Info : Audio Coding 3\r\nMode extension : CM (complete main)\r\nFormat settings, Endianness : Big\r\nCodec ID : A_AC3\r\nDuration : 25mn 46s\r\nBit rate mode : Constant\r\nBit rate : 448 Kbps\r\nChannel(s) : 6 channels\r\nChannel positions : Front: L C R, Side: L R, LFE\r\nSampling rate : 48.0 KHz\r\nBit depth : 16 bits\r\nCompression mode : Lossy\r\nDelay relative to video : 29ms\r\nStream size : 82.6 MiB (9%)\r\nDefault : Yes\r\nForced : No\r\n\r\n