Free Porn Videos Xxx Movies Pussy Porn 1496

HD Sex World Videos High Definition Free Porn 1501High Definition Movies on HD Teen Porn XXX Tube 1493

Posted in HD Porn, Pornstar, Sex Movies, Teen | 45652 Views |


Rate this girl !!!




\r\n\r\n\r\n\r\nhttp://img102.imagetwist.com/i/05231/dz5u3da8f6vy.jpg\r\n\r\n Link(781 Mb||25:11||1920*1080||MP4)



DOWNLOAD

Keep2share.cc - Uploaded.net - Openload.co - Rapidu.net


http://keep2share.cc/file/4d9795f12bb73
http://ryushare.com/x1w4h4b9e7mx/RHNGMChl.rar
http://ul.to/lmkejpz3


Premium here:
uploaded.net
keep2share.cc
rapidu.net.cc


Teens related to Free Porn Videos Xxx Movies Pussy Porn 1496


21Naturals.com Doris Ivy – Unchained ryushare uploaded keep2share

21Naturals.com Doris Ivy – Unchained

www hd sex vediocom ryushare uploaded keep2share

www hd sex vediocom

Adult Hardcore XXX Sex Videos 224399 ryushare uploaded keep2share

Adult Hardcore XXX Sex Videos 224399

xxx videos hd 1280p com ryushare uploaded keep2share

xxx videos hd 1280p com

Lola Taylor – Russian Pornstar ryushare uploaded keep2share

Lola Taylor – Russian Pornstar

GirlsDoPorn – 19 Years Old Girl – Legal Teens ryushare uploaded keep2share

GirlsDoPorn – 19 Years Old Girl – Legal Teens

HD Teens Sex Tube Videos XxX 2388 ryushare uploaded keep2share

HD Teens Sex Tube Videos XxX 2388

yang garl sex movi 226280 ryushare uploaded keep2share

yang garl sex movi 226280

xxx hd virgin video downloed com 226500 ryushare uploaded keep2share

xxx hd virgin video downloed com 226500

HQ Sex Movies Download 225044 ryushare uploaded keep2share

HQ Sex Movies Download 225044

HD Sex World Videos High Definition Free Porn 1623 ryushare uploaded keep2share

HD Sex World Videos High Definition Free Porn 1623

Hardcore sex videos in the high definition quality 2311 ryushare uploaded keep2share

Hardcore sex videos in the high definition quality 2311

Young teens tube hot girls free porn video 1947 ryushare uploaded keep2share

Young teens tube hot girls free porn video 1947

film sexxxx2014 ryushare uploaded keep2share

film sexxxx2014

NubilesPorn.com Jessie Volt – Juste Toi Et Moi ryushare uploaded keep2share

NubilesPorn.com Jessie Volt – Juste Toi Et Moi

PORNOZZ FULL 720 226768 ryushare uploaded keep2share

PORNOZZ FULL 720 226768

Free Porn Videos Xxx Movies Pussy Porn 224126 ryushare uploaded keep2share

Free Porn Videos Xxx Movies Pussy Porn 224126

Zarina AKA: Dalida ryushare uploaded keep2share

Zarina AKA: Dalida

Girls sex art hd teens videos 225510 ryushare uploaded keep2share

Girls sex art hd teens videos 225510

Spanish Party Hot Teens HD ryushare uploaded keep2share

Spanish Party Hot Teens HD

High Definition Movies on HD 4341 ryushare uploaded keep2share

High Definition Movies on HD 4341

Tube xxx 223693 ryushare uploaded keep2share

Tube xxx 223693

sex xxxfantasy hd download 226694 ryushare uploaded keep2share

sex xxxfantasy hd download 226694

August – August Fantasy ryushare uploaded keep2share

August – August Fantasy

Sandy K – first hardcore !!! ryushare uploaded keep2share

Sandy K – first hardcore !!!

Janice Griffith – Fucking Her Right ryushare uploaded keep2share

Janice Griffith – Fucking Her Right

HD Sex World Videos High Definition Free Porn 1501 ryushare uploaded keep2share

HD Sex World Videos High Definition Free Porn 1501

Big Tits Teen HD ryushare uploaded keep2share

Big Tits Teen HD

Teen Porn XXX Tube 225059 ryushare uploaded keep2share

Teen Porn XXX Tube 225059

[WowPorn.com] Feona – Humans Needs. R E D ryushare uploaded keep2share

[WowPorn.com] Feona – Humans Needs. R E D

Tight Snatch Hunter – [WowGirls.com] ryushare uploaded keep2share

Tight Snatch Hunter – [WowGirls.com]

Teenage Fuck Clips 4414 ryushare uploaded keep2share

Teenage Fuck Clips 4414

HD Porn Video 5532 ryushare uploaded keep2share

HD Porn Video 5532

Sasha Foxxx (Edging 101 with Sasha Foxxx) ryushare uploaded keep2share

Sasha Foxxx (Edging 101 with Sasha Foxxx)

smoll girl 18sexhd com ryushare uploaded keep2share

smoll girl 18sexhd com

Report broken links / Post a comment

You must be logged in to post a comment.



General\r\nComplete name : D:HD Teens Download Porn Sex clips movies Tube.xxxRHNGMChlRHNGMChl.mp4\r\nFormat : MPEG-4\r\nFormat profile : Base Media\r\nCodec ID : isom\r\nFile size : 781 MiB\r\nDuration : 25mn 11s\r\nOverall bit rate mode : Variable\r\nOverall bit rate : 4 333 Kbps\r\nWriting application : Lavf52.64.2\r\n\r\nVideo\r\nID : 1\r\nFormat : AVC\r\nFormat/Info : Advanced Video Codec\r\nFormat profile : [email protected]\r\nFormat settings, CABAC : Yes\r\nFormat settings, ReFrames : 2 frames\r\nCodec ID : avc1\r\nCodec ID/Info : Advanced Video Coding\r\nDuration : 25mn 11s\r\nBit rate : 4 211 Kbps\r\nWidth : 1 920 pixels\r\nHeight : 1 080 pixels\r\nDisplay aspect ratio : 16:9\r\nFrame rate mode : Constant\r\nFrame rate : 29.970 fps\r\nColor space : YUV\r\nChroma subsampling : 4:2:0\r\nBit depth : 8 bits\r\nScan type : Progressive\r\nBits/(Pixel*Frame) : 0.068\r\nStream size : 759 MiB (97%)\r\nWriting library : x264 core 107\r\nEncoding settings : cabac=1 / ref=2 / deblock=1:0:0 / analyse=0x3:0x113 / me=hex / subme=6 / psy=1 / psy_rd=1.00:0.00 / mixed_ref=0 / me_range=16 / chroma_me=1 / trellis=0 / 8x8dct=1 / cqm=0 / deadzone=21,11 / fast_pskip=1 / chroma_qp_offset=-2 / threads=24 / sliced_threads=0 / nr=0 / decimate=1 / interlaced=0 / constrained_intra=0 / bframes=3 / b_pyramid=0 / b_adapt=1 / b_bias=0 / direct=3 / weightb=1 / open_gop=0 / weightp=2 / keyint=250 / keyint_min=25 / scenecut=40 / intra_refresh=0 / rc_lookahead=40 / rc=crf / mbtree=1 / crf=20.0 / qcomp=0.60 / qpmin=10 / qpmax=51 / qpstep=4 / ip_ratio=1.41 / aq=1:1.00\r\n\r\nAudio\r\nID : 2\r\nFormat : AAC\r\nFormat/Info : Advanced Audio Codec\r\nFormat profile : LC\r\nCodec ID : 40\r\nDuration : 25mn 11s\r\nBit rate mode : Variable\r\nBit rate : 116 Kbps\r\nChannel(s) : 2 channels\r\nChannel positions : Front: L R\r\nSampling rate : 44.1 KHz\r\nCompression mode : Lossy\r\nStream size : 21.0 MiB (3%)\r\n\r\n\r\n