Free High Quality Sex Movies 2139

Young teens tube hot girls free porn video 2142HD Porn Videos 2135

Posted in Amateur, HD Porn, Sex Movies, Teen | 7104 Views |


Rate this girl !!!




\r\n\r\n5.jpeg\r\n\r\n Link(753 Mb||41:48||980*552||MP4)



DOWNLOAD

Keep2share.cc - Uploaded.net - Openload.co - Rapidu.net


http://ryushare.com/4myoykrsz155/FCDSJNCgr.mp4
http://ul.to/oum2vh9x/FCDSJNCgr.mp4
http://k2s.cc/file/36028471472a4/FCDSJNCgr.mp4


Premium here:
uploaded.net
keep2share.cc
rapidu.net.cc


Teens related to Free High Quality Sex Movies 2139


Free Teen Porn Videos at Teen Sex Tube XXX 225585 ryushare uploaded keep2share

Free Teen Porn Videos at Teen Sex Tube XXX 225585

Teen 18 Porn XXX Clips Naked 2154 ryushare uploaded keep2share

Teen 18 Porn XXX Clips Naked 2154

Free High Quality Sex Movies 225750 ryushare uploaded keep2share

Free High Quality Sex Movies 225750

germanya xxxx com 226752 ryushare uploaded keep2share

germanya xxxx com 226752

Teen Sex Videos Tube Movies 2090 ryushare uploaded keep2share

Teen Sex Videos Tube Movies 2090

Hot Teen Sex 224944 ryushare uploaded keep2share

Hot Teen Sex 224944

Girls sex art hd teens videos 225510 ryushare uploaded keep2share

Girls sex art hd teens videos 225510

www pinkworld hd movies com 226583 ryushare uploaded keep2share

www pinkworld hd movies com 226583

Teen Sex Porn Videos Free Nude Teens 5135 ryushare uploaded keep2share

Teen Sex Porn Videos Free Nude Teens 5135

Amateur Teen Sex 4995 ryushare uploaded keep2share

Amateur Teen Sex 4995

Wow girls hd porn teens 223846 ryushare uploaded keep2share

Wow girls hd porn teens 223846

Wow porn tube movies 4428 ryushare uploaded keep2share

Wow porn tube movies 4428

HD Porn Teen Sex Videos 5198 ryushare uploaded keep2share

HD Porn Teen Sex Videos 5198

Hot download sex girls movies 225877 ryushare uploaded keep2share

Hot download sex girls movies 225877

The best Teen sex 225855 ryushare uploaded keep2share

The best Teen sex 225855

HQ Sex Movies Download 4182 ryushare uploaded keep2share

HQ Sex Movies Download 4182

Hardcore sex videos in the high definition quality 223782 ryushare uploaded keep2share

Hardcore sex videos in the high definition quality 223782

Teens sex mania 225041 ryushare uploaded keep2share

Teens sex mania 225041

Xxx fuka in 226353 ryushare uploaded keep2share

Xxx fuka in 226353

Teen Tits Tube, Young Girls Porn Videos 224090 ryushare uploaded keep2share

Teen Tits Tube, Young Girls Porn Videos 224090

Young Sex Movies 4459 ryushare uploaded keep2share

Young Sex Movies 4459

Young 720p hd porn 4350 ryushare uploaded keep2share

Young 720p hd porn 4350

Daisy Summers (Don’t Tell Your Sister Seriously) ryushare uploaded keep2share

Daisy Summers (Don’t Tell Your Sister Seriously)

Young XXX Tube Videos 2398 ryushare uploaded keep2share

Young XXX Tube Videos 2398

HD Porn Video 1701 ryushare uploaded keep2share

HD Porn Video 1701

Much Need Vacation X-Art ryushare uploaded keep2share

Much Need Vacation X-Art

Porn HD Sex HD Teen Sex 4170 ryushare uploaded keep2share

Porn HD Sex HD Teen Sex 4170

Uploaded net porn 2517 ryushare uploaded keep2share

Uploaded net porn 2517

hd porn new breast 226190 ryushare uploaded keep2share

hd porn new breast 226190

xvideohqdownlod 226407 ryushare uploaded keep2share

xvideohqdownlod 226407

Young XXX Tube Videos 3931 ryushare uploaded keep2share

Young XXX Tube Videos 3931

Good Teen Tube Sexy Young Naked Girls Movies 224527 ryushare uploaded keep2share

Good Teen Tube Sexy Young Naked Girls Movies 224527

Teenage Fuck Clips 3779 ryushare uploaded keep2share

Teenage Fuck Clips 3779

HD Teens Sex Tube Videos XxX 2706 ryushare uploaded keep2share

HD Teens Sex Tube Videos XxX 2706

Kiara Lord – Window ryushare uploaded keep2share

Kiara Lord – Window

Report broken links / Post a comment

You must be logged in to post a comment.



General\r\nComplete name : D:HD Teens Download Porn Sex clips movies TubeFCDSJNCgr.mp4\r\nFormat : MPEG-4\r\nFormat profile : Base Media\r\nCodec ID : isom\r\nFile size : 753 MiB\r\nDuration : 41mn 48s\r\nOverall bit rate mode : Variable\r\nOverall bit rate : 2 519 Kbps\r\nWriting application : Lavf55.12.100\r\n\r\nVideo\r\nID : 1\r\nFormat : AVC\r\nFormat/Info : Advanced Video Codec\r\nFormat profile : [email protected]\r\nFormat settings, CABAC : No\r\nFormat settings, ReFrames : 3 frames\r\nCodec ID : avc1\r\nCodec ID/Info : Advanced Video Coding\r\nDuration : 41mn 48s\r\nBit rate : 2 500 Kbps\r\nWidth : 980 pixels\r\nHeight : 552 pixels\r\nDisplay aspect ratio : 16:9\r\nFrame rate mode : Constant\r\nFrame rate : 30.000 fps\r\nColor space : YUV\r\nChroma subsampling : 4:2:0\r\nBit depth : 8 bits\r\nScan type : Progressive\r\nBits/(Pixel*Frame) : 0.154\r\nStream size : 715 MiB (95%)\r\nWriting library : x264 core 130 r2274 c832fe9\r\nEncoding settings : cabac=0 / ref=3 / deblock=1:0:0 / analyse=0x3:0x113 / me=hex / subme=7 / psy=1 / psy_rd=1.00:0.00 / mixed_ref=1 / me_range=16 / chroma_me=1 / trellis=1 / 8x8dct=1 / cqm=0 / deadzone=21,11 / fast_pskip=1 / chroma_qp_offset=-2 / threads=4 / lookahead_threads=1 / sliced_threads=0 / nr=0 / decimate=1 / interlaced=0 / bluray_compat=0 / constrained_intra=0 / bframes=0 / weightp=2 / keyint=250 / keyint_min=25 / scenecut=40 / intra_refresh=0 / rc_lookahead=40 / rc=abr / mbtree=1 / bitrate=2500 / ratetol=1.0 / qcomp=0.60 / qpmin=0 / qpmax=69 / qpstep=4 / ip_ratio=1.40 / aq=1:1.00\r\nLanguage : English\r\n\r\nAudio\r\nID : 2\r\nFormat : AAC\r\nFormat/Info : Advanced Audio Codec\r\nFormat profile : LC\r\nCodec ID : 40\r\nDuration : 41mn 48s\r\nBit rate mode : Variable\r\nBit rate : 122 Kbps\r\nMaximum bit rate : 128 Kbps\r\nChannel(s) : 2 channels\r\nChannel positions : Front: L R\r\nSampling rate : 44.1 KHz\r\nCompression mode : Lossy\r\nStream size : 36.6 MiB (5%)\r\nLanguage : English\r\n\r\n