First time Sexual Films 18 sex xxx 1785

Free High Quality Sex Movies 1788Teen Sex Movies 1772

Posted in HD Porn, Pornstar, Sex Movies, Teen | 53947 Views |


Rate this girl !!!




\r\n\r\nhttp://img102.imagetwist.com/i/05280/f8rajxvu1hv5.jpeg\r\n\r\n Link(576 Mb||10:28||1920*1080||MP4)



DOWNLOAD

Keep2share.cc - Uploaded.net - Openload.co - Rapidu.net


http://keep2share.cc/file/c9656970370ce
http://ryushare.com/q2fsxgt332b2/CRMFGRlr.rar
http://ul.to/m96yrbpz


Premium here:
uploaded.net
keep2share.cc
rapidu.net.cc


Teens related to First time Sexual Films 18 sex xxx 1785


Sweet Teen Porn – sex in the kitchen ryushare uploaded keep2share

Sweet Teen Porn – sex in the kitchen

girls high quality sex videos download 226282 ryushare uploaded keep2share

girls high quality sex videos download 226282

Teen porn movies 1954 ryushare uploaded keep2share

Teen porn movies 1954

Daisy Summers (Don’t Tell Your Sister Seriously) ryushare uploaded keep2share

Daisy Summers (Don’t Tell Your Sister Seriously)

Adult Hardcore XXX Sex Videos 1879 ryushare uploaded keep2share

Adult Hardcore XXX Sex Videos 1879

Nubiles-Porn Sierra Nevadah – Fucking Love ryushare uploaded keep2share

Nubiles-Porn Sierra Nevadah – Fucking Love

Sara Luvv – Dorm Room Invitation ryushare uploaded keep2share

Sara Luvv – Dorm Room Invitation

xnsexvids hd 1080 ryushare uploaded keep2share

xnsexvids hd 1080

The best Teen sex 223922 ryushare uploaded keep2share

The best Teen sex 223922

[Spizoo.com]  (Romi Rain Hires A Gigolo / 01.12.2016) ryushare uploaded keep2share

[Spizoo.com] (Romi Rain Hires A Gigolo / 01.12.2016)

Hardcore Sex Hub 224214 ryushare uploaded keep2share

Hardcore Sex Hub 224214

www hd sex videos in low mb 226069 ryushare uploaded keep2share

www hd sex videos in low mb 226069

Girls sex art hd teens videos 224625 ryushare uploaded keep2share

Girls sex art hd teens videos 224625

Connie – More Than I Could Wish Forpic ryushare uploaded keep2share

Connie – More Than I Could Wish Forpic

Www sex Full PcVideo ryushare uploaded keep2share

Www sex Full PcVideo

teen porno sites xxx ryushare uploaded keep2share

teen porno sites xxx

Girls do porn downloads 3828 ryushare uploaded keep2share

Girls do porn downloads 3828

Teen Sex Videos Tube Movies 225843 ryushare uploaded keep2share

Teen Sex Videos Tube Movies 225843

Good Teen Tube Sexy Young Naked Girls Movies 225111 ryushare uploaded keep2share

Good Teen Tube Sexy Young Naked Girls Movies 225111

1080p porn free dounloaded videos ryushare uploaded keep2share

1080p porn free dounloaded videos

Sex in the morning ryushare uploaded keep2share

Sex in the morning

Hot Teen Sex HD videos 2678 ryushare uploaded keep2share

Hot Teen Sex HD videos 2678

Teens sex mania 225690 ryushare uploaded keep2share

Teens sex mania 225690

Teen Sex Videos Tube Movies 4086 ryushare uploaded keep2share

Teen Sex Videos Tube Movies 4086

proun hup xxx video mp4 ryushare uploaded keep2share

proun hup xxx video mp4

Viktoria Diamond – Sinful Scarlet Mood ryushare uploaded keep2share

Viktoria Diamond – Sinful Scarlet Mood

Girls do porn downloads 3844 ryushare uploaded keep2share

Girls do porn downloads 3844

Teen porn movies 224809 ryushare uploaded keep2share

Teen porn movies 224809

zazzers com Full HD ryushare uploaded keep2share

zazzers com Full HD

HQ Sex Movies Download 4226 ryushare uploaded keep2share

HQ Sex Movies Download 4226

Tube Young Sex 224260 ryushare uploaded keep2share

Tube Young Sex 224260

Hot Teen Sex 224944 ryushare uploaded keep2share

Hot Teen Sex 224944

Wow girls hd porn teens 223846 ryushare uploaded keep2share

Wow girls hd porn teens 223846

Teen xxx sex hd 224959 ryushare uploaded keep2share

Teen xxx sex hd 224959

www yes xxx hd downlads 226589 ryushare uploaded keep2share

www yes xxx hd downlads 226589

Report broken links / Post a comment

You must be logged in to post a comment.



General\r\nComplete name : D:HD Teens Download Porn Sex clips movies Tube.xxxCRMFGRlrCRMFGRlr.mp4\r\nFormat : MPEG-4\r\nFormat profile : Base Media\r\nCodec ID : isom\r\nFile size : 576 MiB\r\nDuration : 10mn 28s\r\nOverall bit rate mode : Variable\r\nOverall bit rate : 7 687 Kbps\r\nEncoded date : UTC 2013-10-08 13:29:18\r\nTagged date : UTC 2013-10-08 13:29:18\r\nWriting application : Lavf54.3.100\r\n\r\nVideo\r\nID : 1\r\nFormat : AVC\r\nFormat/Info : Advanced Video Codec\r\nFormat profile : [email protected]\r\nFormat settings, CABAC : Yes\r\nFormat settings, ReFrames : 4 frames\r\nCodec ID : avc1\r\nCodec ID/Info : Advanced Video Coding\r\nDuration : 10mn 28s\r\nBit rate : 7 680 Kbps\r\nWidth : 1 920 pixels\r\nHeight : 1 080 pixels\r\nDisplay aspect ratio : 16:9\r\nFrame rate mode : Constant\r\nFrame rate : 25.000 fps\r\nColor space : YUV\r\nChroma subsampling : 4:2:0\r\nBit depth : 8 bits\r\nScan type : Progressive\r\nBits/(Pixel*Frame) : 0.148\r\nStream size : 567 MiB (98%)\r\nWriting library : x264 core 122 r2184 5c85e0a\r\nEncoding settings : cabac=1 / ref=3 / deblock=1:0:0 / analyse=0x3:0x113 / me=hex / subme=7 / psy=1 / psy_rd=1.00:0.00 / mixed_ref=1 / me_range=16 / chroma_me=1 / trellis=1 / 8x8dct=1 / cqm=0 / deadzone=21,11 / fast_pskip=1 / chroma_qp_offset=-2 / threads=12 / sliced_threads=0 / nr=0 / decimate=1 / interlaced=0 / bluray_compat=0 / constrained_intra=0 / bframes=3 / b_pyramid=2 / b_adapt=1 / b_bias=0 / direct=1 / weightb=1 / open_gop=0 / weightp=2 / keyint=250 / keyint_min=25 / scenecut=40 / intra_refresh=0 / rc_lookahead=40 / rc=abr / mbtree=1 / bitrate=7680 / ratetol=1.0 / qcomp=0.60 / qpmin=0 / qpmax=69 / qpstep=4 / ip_ratio=1.40 / aq=1:1.00\r\nLanguage : English\r\nEncoded date : UTC 2013-10-08 13:29:18\r\nTagged date : UTC 2013-10-08 13:29:18\r\n\r\nAudio\r\nID : 2\r\nFormat : AAC\r\nFormat/Info : Advanced Audio Codec\r\nFormat profile : LC\r\nCodec ID : 40\r\nDuration : 10mn 28s\r\nBit rate mode : Variable\r\nBit rate : 117 Kbps\r\nMaximum bit rate : 128 Kbps\r\nChannel(s) : 2 channels\r\nChannel positions : Front: L R\r\nSampling rate : 48.0 KHz\r\nCompression mode : Lossy\r\nStream size : 8.76 MiB (2%)\r\nLanguage : English\r\nEncoded date : UTC 2013-10-08 13:29:18\r\nTagged date : UTC 2013-10-08 13:29:18\r\n\r\n