First time Sexual Films 18 sex xxx 1576

Hot Teen Sex HD videos 1578Free Porn Videos Xxx Movies Pussy Porn 1568

Posted in HD Porn, Pornstar, Sex Movies, Teen | 11072 Views |


Rate this girl !!!




 \r\n\r\nhttp://img56.imagetwist.com/i/05235/hd0ccqor46ij.jpeg\r\n\r\n Link(804 Mb||17:17||1920*1080||MP4)



DOWNLOAD

Keep2share.cc - Uploaded.net - Openload.co - Rapidu.net


http://keep2share.cc/file/5b15e2a0909f6
http://ryushare.com/l5bty5zqvha6/NBMSNJlc.rar
http://ul.to/xw0zq23k


Premium here:
uploaded.net
keep2share.cc
rapidu.net.cc


Teens related to First time Sexual Films 18 sex xxx 1576


Amateur Teen Sex 5266 ryushare uploaded keep2share

Amateur Teen Sex 5266

21Naturals.com Alysa Gap ryushare uploaded keep2share

21Naturals.com Alysa Gap

Adult Hardcore XXX Sex Videos 4120 ryushare uploaded keep2share

Adult Hardcore XXX Sex Videos 4120

sxy ccc xx 226377 ryushare uploaded keep2share

sxy ccc xx 226377

Hot Teen Sex HD videos 2172 ryushare uploaded keep2share

Hot Teen Sex HD videos 2172

A lot of cocks for a teen ryushare uploaded keep2share

A lot of cocks for a teen

Nude Teens fucking hard 4646 ryushare uploaded keep2share

Nude Teens fucking hard 4646

Young xxx 224310 ryushare uploaded keep2share

Young xxx 224310

Young legal porn clips 2837 ryushare uploaded keep2share

Young legal porn clips 2837

hd xxx com dawonlod vedeo 226419 ryushare uploaded keep2share

hd xxx com dawonlod vedeo 226419

Edge play with Anabelle and Ashlynn ryushare uploaded keep2share

Edge play with Anabelle and Ashlynn

Porno movies young teens lesbian 5252 ryushare uploaded keep2share

Porno movies young teens lesbian 5252

Teen Sex Videos Tube Movies 225847 ryushare uploaded keep2share

Teen Sex Videos Tube Movies 225847

www HD sex videoxxx com ryushare uploaded keep2share

www HD sex videoxxx com

Hot download sex girls movies 224376 ryushare uploaded keep2share

Hot download sex girls movies 224376

wow-Girlsporn net 226212 ryushare uploaded keep2share

wow-Girlsporn net 226212

First time Sexual Films 18 sex xxx 5710 ryushare uploaded keep2share

First time Sexual Films 18 sex xxx 5710

Backyard Amateurs (3 scenes) ryushare uploaded keep2share

Backyard Amateurs (3 scenes)

Teen Sex Videos Tube Movies 225164 ryushare uploaded keep2share

Teen Sex Videos Tube Movies 225164

Tube xxx 224403 ryushare uploaded keep2share

Tube xxx 224403

TrickyMasseur.com Raquel ryushare uploaded keep2share

TrickyMasseur.com Raquel

Sweet Teen Porn – Young Porn Videos 3794 ryushare uploaded keep2share

Sweet Teen Porn – Young Porn Videos 3794

Squirters Juice Bar Carla Cox ryushare uploaded keep2share

Squirters Juice Bar Carla Cox

avi full hd porn 226178 ryushare uploaded keep2share

avi full hd porn 226178

download 1080p xxx porn video 226662 ryushare uploaded keep2share

download 1080p xxx porn video 226662

Teen porn movies 1195 ryushare uploaded keep2share

Teen porn movies 1195

Watch Teen Sex Videos HD 225363 ryushare uploaded keep2share

Watch Teen Sex Videos HD 225363

HD sex movies downloads 2857 ryushare uploaded keep2share

HD sex movies downloads 2857

xxx fuking feast times video hd dawunlod 226104 ryushare uploaded keep2share

xxx fuking feast times video hd dawunlod 226104

Casting Vikki 1080p ryushare uploaded keep2share

Casting Vikki 1080p

wow so hot movies hd faapy xxx com ryushare uploaded keep2share

wow so hot movies hd faapy xxx com

HD Teen Sex Tube 225351 ryushare uploaded keep2share

HD Teen Sex Tube 225351

Sweet Teen Porn – Young Porn Videos 4630 ryushare uploaded keep2share

Sweet Teen Porn – Young Porn Videos 4630

Young XXX Tube Videos 3935 ryushare uploaded keep2share

Young XXX Tube Videos 3935

Nude Teens fucking hard 1979 ryushare uploaded keep2share

Nude Teens fucking hard 1979

Report broken links / Post a comment

You must be logged in to post a comment.



General\r\nComplete name : D:HD Teens Download Porn Sex clips movies Tube.xxxNBMSNJlcNBMSNJlc.mp4\r\nFormat : MPEG-4\r\nFormat profile : Base Media\r\nCodec ID : isom\r\nFile size : 804 MiB\r\nDuration : 17mn 17s\r\nOverall bit rate mode : Variable\r\nOverall bit rate : 6 500 Kbps\r\nWriting application : Lavf54.25.104\r\n\r\nVideo\r\nID : 1\r\nFormat : AVC\r\nFormat/Info : Advanced Video Codec\r\nFormat profile : [email protected]\r\nFormat settings, CABAC : Yes\r\nFormat settings, ReFrames : 4 frames\r\nCodec ID : avc1\r\nCodec ID/Info : Advanced Video Coding\r\nDuration : 17mn 17s\r\nBit rate : 6 382 Kbps\r\nWidth : 1 920 pixels\r\nHeight : 1 080 pixels\r\nDisplay aspect ratio : 16:9\r\nFrame rate mode : Constant\r\nFrame rate : 23.976 fps\r\nColor space : YUV\r\nChroma subsampling : 4:2:0\r\nBit depth : 8 bits\r\nScan type : Progressive\r\nBits/(Pixel*Frame) : 0.128\r\nStream size : 789 MiB (98%)\r\nWriting library : x264 core 125 r2208 d9d2288\r\nEncoding settings : cabac=1 / ref=2 / deblock=1:-1:-1 / analyse=0x1:0x111 / me=umh / subme=8 / psy=1 / psy_rd=1.00:0.15 / mixed_ref=1 / me_range=16 / chroma_me=1 / trellis=1 / 8x8dct=0 / cqm=0 / deadzone=21,11 / fast_pskip=1 / chroma_qp_offset=-3 / threads=2 / lookahead_threads=1 / sliced_threads=0 / nr=0 / decimate=1 / interlaced=0 / bluray_compat=0 / constrained_intra=0 / bframes=3 / b_pyramid=2 / b_adapt=2 / b_bias=0 / direct=3 / weightb=1 / open_gop=0 / weightp=0 / keyint=250 / keyint_min=23 / scenecut=40 / intra_refresh=0 / rc_lookahead=50 / rc=crf / mbtree=1 / crf=18.0 / qcomp=0.60 / qpmin=0 / qpmax=69 / qpstep=4 / ip_ratio=1.40 / aq=1:1.00\r\nLanguage : English\r\n\r\nAudio\r\nID : 2\r\nFormat : AAC\r\nFormat/Info : Advanced Audio Codec\r\nFormat profile : LC\r\nCodec ID : 40\r\nDuration : 17mn 17s\r\nDuration_LastFrame : -21ms\r\nBit rate mode : Variable\r\nBit rate : 113 Kbps\r\nMaximum bit rate : 196 Kbps\r\nChannel(s) : 2 channels\r\nChannel positions : Front: L R\r\nSampling rate : 44.1 KHz\r\nCompression mode : Lossy\r\nStream size : 13.9 MiB (2%)\r\nLanguage : English\r\n\r\n