Evening at home with brunette

Teens Sweet orgyFucking outdoors

Posted in HD Porn, Sex Movies, Teen, Threesome | 6797 Views |


Rate this girl !!!




\r\n\r\nhttp://img101.imagetwist.com/i/05143/qya2rtgpsixa.jpg\r\n\r\n Link(478 Mb||21:59||1280*720||MP4) \r\n\r\nEvening at home with brunette\r\n\r\n 



DOWNLOAD

Keep2share.cc - Uploaded.net - Openload.co - Rapidu.net


http://keep2share.cc/file/52e5e2a37c341
http://ryushare.com/dy9iqoxxizyq/SYRGFNln.rar
http://ul.to/mpm36rbr


Premium here:
uploaded.net
keep2share.cc
rapidu.net.cc

Teens related to Evening at home with brunette


Teen 18 Porn XXX Clips Naked 3853 ryushare uploaded keep2share

Teen 18 Porn XXX Clips Naked 3853

Clubseventeen 507 Mb 226566 ryushare uploaded keep2share

Clubseventeen 507 Mb 226566

Porn HQ Movei free downlode ryushare uploaded keep2share

Porn HQ Movei free downlode

Nude Teens fucking hard 1320 ryushare uploaded keep2share

Nude Teens fucking hard 1320

HD Porn Video 1552 ryushare uploaded keep2share

HD Porn Video 1552

Young legal porn clips 4754 ryushare uploaded keep2share

Young legal porn clips 4754

HD Teen Sex Tube 223714 ryushare uploaded keep2share

HD Teen Sex Tube 223714

High Definition Movies on HD 225408 ryushare uploaded keep2share

High Definition Movies on HD 225408

Teen Sex Movies 3831 ryushare uploaded keep2share

Teen Sex Movies 3831

Babes.com Nataly Gold, Silvia Lauren – A guiding hand ryushare uploaded keep2share

Babes.com Nataly Gold, Silvia Lauren – A guiding hand

Lola Taylor – Russian Pornstar ryushare uploaded keep2share

Lola Taylor – Russian Pornstar

Sasha Foxxx (Edging 101 with Sasha Foxxx) ryushare uploaded keep2share

Sasha Foxxx (Edging 101 with Sasha Foxxx)

Nude Teens fucking hard 223931 ryushare uploaded keep2share

Nude Teens fucking hard 223931

Girls sex art hd teens videos 225147 ryushare uploaded keep2share

Girls sex art hd teens videos 225147

Creampie-Angels.com Licie ryushare uploaded keep2share

Creampie-Angels.com Licie

BLU FIMS BFXX GILRS COM 226254 ryushare uploaded keep2share

BLU FIMS BFXX GILRS COM 226254

I Like Old Dick In My Teeny Ass – Ivana Sugar ryushare uploaded keep2share

I Like Old Dick In My Teeny Ass – Ivana Sugar

HD sex movies downloads 3688 ryushare uploaded keep2share

HD sex movies downloads 3688

Kennedy Leigh & Thomas – Date Night ryushare uploaded keep2share

Kennedy Leigh & Thomas – Date Night

Tube xxx 224403 ryushare uploaded keep2share

Tube xxx 224403

Download young porn sex 5145 ryushare uploaded keep2share

Download young porn sex 5145

xxx videos hd 1280p com ryushare uploaded keep2share

xxx videos hd 1280p com

www full hd xxx sexy movie 226625 ryushare uploaded keep2share

www full hd xxx sexy movie 226625

Xxxx 2014massage 226629 ryushare uploaded keep2share

Xxxx 2014massage 226629

Teen porn movies 1195 ryushare uploaded keep2share

Teen porn movies 1195

Nude Teens fucking hard 4300 ryushare uploaded keep2share

Nude Teens fucking hard 4300

Hot Teen Sex HD videos 224236 ryushare uploaded keep2share

Hot Teen Sex HD videos 224236

hd18sex x videos com ryushare uploaded keep2share

hd18sex x videos com

HD Teen Sex Tube 225528 ryushare uploaded keep2share

HD Teen Sex Tube 225528

Hot Teen Sex HD videos 1578 ryushare uploaded keep2share

Hot Teen Sex HD videos 1578

Watch Teen Sex Videos HD 225363 ryushare uploaded keep2share

Watch Teen Sex Videos HD 225363

www Short hd sexvideos Com ryushare uploaded keep2share

www Short hd sexvideos Com

Free Porn Videos Xxx Movies Pussy Porn 5324 ryushare uploaded keep2share

Free Porn Videos Xxx Movies Pussy Porn 5324

sexx 18x ryushare uploaded keep2share

sexx 18x

Young teens tube hot girls free porn video 1430 ryushare uploaded keep2share

Young teens tube hot girls free porn video 1430

Report broken links / Post a comment

You must be logged in to post a comment.



General\r\nComplete name : D:Evening at home with brunetteSYRGFNlnSYRGFNln.mp4\r\nFormat : MPEG-4\r\nFormat profile : Base Media\r\nCodec ID : isom\r\nFile size : 478 MiB\r\nDuration : 21mn 59s\r\nOverall bit rate mode : Variable\r\nOverall bit rate : 3 041 Kbps\r\nWriting application : Lavf52.111.0\r\n\r\nVideo\r\nID : 1\r\nFormat : AVC\r\nFormat/Info : Advanced Video Codec\r\nFormat profile : [email protected]\r\nFormat settings, CABAC : Yes\r\nFormat settings, ReFrames : 4 frames\r\nCodec ID : avc1\r\nCodec ID/Info : Advanced Video Coding\r\nDuration : 21mn 59s\r\nBit rate : 2 925 Kbps\r\nWidth : 1 280 pixels\r\nHeight : 720 pixels\r\nDisplay aspect ratio : 16:9\r\nFrame rate mode : Constant\r\nFrame rate : 25.000 fps\r\nColor space : YUV\r\nChroma subsampling : 4:2:0\r\nBit depth : 8 bits\r\nScan type : Progressive\r\nBits/(Pixel*Frame) : 0.127\r\nStream size : 460 MiB (96%)\r\nWriting library : x264 core 116\r\nEncoding settings : cabac=1 / ref=3 / deblock=1:0:0 / analyse=0x3:0x113 / me=hex / subme=7 / psy=1 / psy_rd=1.00:0.00 / mixed_ref=1 / me_range=16 / chroma_me=1 / trellis=0 / 8x8dct=1 / cqm=0 / deadzone=21,11 / fast_pskip=1 / chroma_qp_offset=-2 / threads=16 / sliced_threads=0 / nr=0 / decimate=1 / interlaced=0 / bluray_compat=0 / constrained_intra=0 / bframes=8 / b_pyramid=2 / b_adapt=1 / b_bias=0 / direct=1 / weightb=1 / open_gop=0 / weightp=2 / keyint=50 / keyint_min=25 / scenecut=40 / intra_refresh=0 / rc_lookahead=40 / rc=crf / mbtree=1 / crf=20.0 / qcomp=0.60 / qpmin=10 / qpmax=51 / qpstep=4 / ip_ratio=1.41 / aq=1:1.00\r\nLanguage : Russian\r\n\r\nAudio\r\nID : 2\r\nFormat : AAC\r\nFormat/Info : Advanced Audio Codec\r\nFormat profile : LC\r\nCodec ID : 40\r\nDuration : 21mn 59s\r\nBit rate mode : Variable\r\nBit rate : 110 Kbps\r\nMaximum bit rate : 128 Kbps\r\nChannel(s) : 2 channels\r\nChannel positions : Front: L R\r\nSampling rate : 44.1 KHz\r\nCompression mode : Lossy\r\nStream size : 17.3 MiB (4%)\r\nLanguage : Russian\r\n\r\n