Dreams-HD.com Nikka

K Three Teasing Tongues 5 -B18OnlyGirls.com / WowFandom.com Luiza (Getting Analyzed)

Posted in HD Porn, Pornstar, Sex Movies, Teen | 23446 Views |


Rate this girl !!!




[Dreams-HD.com] Nikka [2014 г., All Sex, Blowjob, Blonde, Massage, Oil, Hardcore, Creampie, Young, 1080p]

\r\npic\r\n\r\nYear: 2014.\r\nGenre: All Sex, Teen, Group, Facial, Students, Blowjob, Cumshots, Slender, Shaved, Brunette, Natural Tits\r\nDuration: 00:30:31\r\nSubsites and site: Dreams-HD.com\r\nStarring: Nikka\r\nType HD video: 1080p\r\nVideo Quality: HDRip\r\nVideo Format: MP4\r\nVideo codec: H.264 / AVC\r\nAudio codec: AAC\r\nVideo: MPEG4 Video (H264) 1920×1080 23.976fps 8018 Kbps\r\nAudio: AAC 44100Hz stereo 1411kbps\r\n\r\nloadingpic



DOWNLOAD

Keep2share.cc - Uploaded.net - Openload.co - Rapidu.net


http://played.to/2o50u2ckxyzg

http://uploaded.net/file/v1ngak0d/Ni.k.ka.g.e.10.80p.mp4


Premium here:
uploaded.net
keep2share.cc
rapidu.net.cc


Teens related to Dreams-HD.com Nikka


Tube xxx 223900 ryushare uploaded keep2share

Tube xxx 223900

Young Virgin Pussy Teen Fuck Tube 1473 ryushare uploaded keep2share

Young Virgin Pussy Teen Fuck Tube 1473

Girls do porn downloads 3828 ryushare uploaded keep2share

Girls do porn downloads 3828

www sex com video high quality free downloading 226323 ryushare uploaded keep2share

www sex com video high quality free downloading 226323

Amateur Teen Sex 5465 ryushare uploaded keep2share

Amateur Teen Sex 5465

http is gd real xgrls hot video 226544 ryushare uploaded keep2share

http is gd real xgrls hot video 226544

www defloration hqvideo com 226313 ryushare uploaded keep2share

www defloration hqvideo com 226313

Amateur teen summer sex movies 4816 ryushare uploaded keep2share

Amateur teen summer sex movies 4816

Hot Teen Sex 3965 ryushare uploaded keep2share

Hot Teen Sex 3965

Klixen, Cindy Hope and Cipriana – Three teasing tongues 2 ryushare uploaded keep2share

Klixen, Cindy Hope and Cipriana – Three teasing tongues 2

Movies Young legal porn 225237 ryushare uploaded keep2share

Movies Young legal porn 225237

The best Teen sex 4606 ryushare uploaded keep2share

The best Teen sex 4606

WowGirls.com Nomi – An Expert At Work ryushare uploaded keep2share

WowGirls.com Nomi – An Expert At Work

18XGirls.com Tori (aka Lola Taylor) ryushare uploaded keep2share

18XGirls.com Tori (aka Lola Taylor)

Hot Teen Sex HD videos 3863 ryushare uploaded keep2share

Hot Teen Sex HD videos 3863

Jessica Rayne – Jerk Off Instruction – Blowjob ryushare uploaded keep2share

Jessica Rayne – Jerk Off Instruction – Blowjob

The best Teen sex 225855 ryushare uploaded keep2share

The best Teen sex 225855

WowGirls.com Vanda – The pleasure Is All Mine ryushare uploaded keep2share

WowGirls.com Vanda – The pleasure Is All Mine

Teen porn xxx 5487 ryushare uploaded keep2share

Teen porn xxx 5487

Teenage Fuck Clips 5122 ryushare uploaded keep2share

Teenage Fuck Clips 5122

Wow porn tube movies 4008 ryushare uploaded keep2share

Wow porn tube movies 4008

Young Virgin Pussy Teen Fuck Tube 2308 ryushare uploaded keep2share

Young Virgin Pussy Teen Fuck Tube 2308

HD Sex World Videos High Definition Free Porn 4540 ryushare uploaded keep2share

HD Sex World Videos High Definition Free Porn 4540

HD Teens Sex Tube Videos XxX 4315 ryushare uploaded keep2share

HD Teens Sex Tube Videos XxX 4315

Young Sex Movies 1507 ryushare uploaded keep2share

Young Sex Movies 1507

Connie Carter – Slippery Sweet ryushare uploaded keep2share

Connie Carter – Slippery Sweet

beautifull girls fuck ryushare uploaded keep2share

beautifull girls fuck

College Teen Sex 6536 ryushare uploaded keep2share

College Teen Sex 6536

www 18year grils sex vedios 226269 ryushare uploaded keep2share

www 18year grils sex vedios 226269

18OnlyGirls.com / WowFandom.com Luiza (Getting Analyzed) ryushare uploaded keep2share

18OnlyGirls.com / WowFandom.com Luiza (Getting Analyzed)

Wow Porn Movies download) 225955 ryushare uploaded keep2share

Wow Porn Movies download) 225955

High Definition Movies on HD 224432 ryushare uploaded keep2share

High Definition Movies on HD 224432

direct link hd porn 225998 ryushare uploaded keep2share

direct link hd porn 225998

Daisy, Jasmine – Boats n Hoes ryushare uploaded keep2share

Daisy, Jasmine – Boats n Hoes

Porn teen hd downloads 5256 ryushare uploaded keep2share

Porn teen hd downloads 5256

Report broken links / Post a comment

You must be logged in to post a comment.



General\r\nComplete name : C:[Dreams-HD.com] Nikka [2014 г., All Sex, Blowjob, Blonde, Massage, Oil, Hardcore, Creampie, Young, 1080p]DownloadsNi.k.ka.g.e.10.80p.mp4\r\nFormat : MPEG-4\r\nFormat profile : Base Media / Version 2\r\nCodec ID : mp42\r\nFile size : 1.74 GiB\r\nDuration : 30mn 31s\r\nOverall bit rate mode : Variable\r\nOverall bit rate : 8 150 Kbps\r\nEncoded date : UTC 2014-05-23 21:56:06\r\nTagged date : UTC 2014-05-23 21:56:06\r\n\r\nVideo\r\nID : 2\r\nFormat : AVC\r\nFormat/Info : Advanced Video Codec\r\nFormat profile : [email protected]\r\nFormat settings, CABAC : Yes\r\nFormat settings, ReFrames : 3 frames\r\nFormat settings, GOP : M=2, N=15\r\nCodec ID : avc1\r\nCodec ID/Info : Advanced Video Coding\r\nDuration : 30mn 31s\r\nBit rate mode : Variable\r\nBit rate : 8 018 Kbps\r\nMaximum bit rate : 10 000 Kbps\r\nWidth : 1 920 pixels\r\nHeight : 1 080 pixels\r\nDisplay aspect ratio : 16:9\r\nFrame rate mode : Constant\r\nFrame rate : 23.976 fps\r\nStandard : NTSC\r\nColor space : YUV\r\nChroma subsampling : 4:2:0\r\nBit depth : 8 bits\r\nScan type : Progressive\r\nBits/(Pixel*Frame) : 0.161\r\nStream size : 1.71 GiB (98%)\r\nLanguage : English\r\nEncoded date : UTC 2014-05-23 21:56:06\r\nTagged date : UTC 2014-05-23 21:56:06\r\n\r\nAudio\r\nID : 1\r\nFormat : AAC\r\nFormat/Info : Advanced Audio Codec\r\nFormat profile : LC\r\nCodec ID : 40\r\nDuration : 30mn 30s\r\nBit rate mode : Constant\r\nBit rate : 128 Kbps\r\nChannel count : channel0\r\nOriginal Channel count : 2 channels\r\nChannel positions : Front: L R\r\nSampling rate : 44.1 KHz\r\nCompression mode : Lossy\r\nStream size : 28.0 MiB (2%)\r\nLanguage : English\r\nEncoded date : UTC 2014-05-23 21:56:06\r\nTagged date : UTC 2014-05-23 21:56:06\r\n\r\n