Denise Sky

Yulia - Wild Anal Slut Owned In The ForestTeensAnalyzed - Nanette - Taking You Closer To Anal [FullHD 1080p]

Posted in Amateur, HD Porn, Sex Movies, Teen | 16558 Views |


Rate this girl !!!




\r\n

Format: mp4\r\nFile Size: 1.06 GiB\r\nDuration: 24mn 23s\r\nResolution: 1920×1080

\r\n

denise_sky_020114.mp4



DOWNLOAD

Keep2share.cc - Uploaded.net - Openload.co - Rapidu.net


http://ryushare.com/p52wga80iyq2/d3nis3_sky_020114.mp4
http://turbobit.net/0dwv2puco29z.html
http://ul.to/4c3fry5u


Premium here:
uploaded.net
keep2share.cc
rapidu.net.cc

Teens related to Denise Sky


8 Teen XXX – Teen Sex 2780 ryushare uploaded keep2share

8 Teen XXX – Teen Sex 2780

[WowPorn.com] Daphne & Ria Sun (Thorough Fingers / ryushare uploaded keep2share

[WowPorn.com] Daphne & Ria Sun (Thorough Fingers /

Good Teen Tube Sexy Young Naked Girls Movies 225959 ryushare uploaded keep2share

Good Teen Tube Sexy Young Naked Girls Movies 225959

hd porn videos in low size download free 226092 ryushare uploaded keep2share

hd porn videos in low size download free 226092

Free Porn Videos Xxx Movies Pussy Porn 225817 ryushare uploaded keep2share

Free Porn Videos Xxx Movies Pussy Porn 225817

www HD xxxvideos downlaod com ryushare uploaded keep2share

www HD xxxvideos downlaod com

High Definition Movies on HD 224782 ryushare uploaded keep2share

High Definition Movies on HD 224782

Teen Tits Tube, Young Girls Porn Videos 1565 ryushare uploaded keep2share

Teen Tits Tube, Young Girls Porn Videos 1565

Klixen – K Fantasies of a Piano Player ryushare uploaded keep2share

Klixen – K Fantasies of a Piano Player

Fresh Teen Videos 2970 ryushare uploaded keep2share

Fresh Teen Videos 2970

Beautiful brunette teen fucking from behind Hd ryushare uploaded keep2share

Beautiful brunette teen fucking from behind Hd

Porn HD Sex HD Teen Sex 224962 ryushare uploaded keep2share

Porn HD Sex HD Teen Sex 224962

Hardcore sex videos in the high definition quality 5403 ryushare uploaded keep2share

Hardcore sex videos in the high definition quality 5403

Uploaded net porn XXX 225961 ryushare uploaded keep2share

Uploaded net porn XXX 225961

16yers hd xxx com 226434 ryushare uploaded keep2share

16yers hd xxx com 226434

Porn party teen girls 224442 ryushare uploaded keep2share

Porn party teen girls 224442

anjelica join the fun keep2share ryushare uploaded keep2share

anjelica join the fun keep2share

HD Teens Sex Tube Videos XxX 1816 ryushare uploaded keep2share

HD Teens Sex Tube Videos XxX 1816

bbb hd sex 226562 ryushare uploaded keep2share

bbb hd sex 226562

Hot Teen Sex 2145 ryushare uploaded keep2share

Hot Teen Sex 2145

wwwsex beuty hd video 226570 ryushare uploaded keep2share

wwwsex beuty hd video 226570

Porn teen hd downloads 224965 ryushare uploaded keep2share

Porn teen hd downloads 224965

Young Virgin Pussy Teen Fuck Tube 1473 ryushare uploaded keep2share

Young Virgin Pussy Teen Fuck Tube 1473

Teen xxx sex hd 225800 ryushare uploaded keep2share

Teen xxx sex hd 225800

Milagres – A Cool Tool For Me ryushare uploaded keep2share

Milagres – A Cool Tool For Me

Tantric Massage – All Sex HD1080p ryushare uploaded keep2share

Tantric Massage – All Sex HD1080p

Teen Sex Porn Videos Free Nude Teens 5623 ryushare uploaded keep2share

Teen Sex Porn Videos Free Nude Teens 5623

Adult Hardcore XXX Sex Videos 4965 ryushare uploaded keep2share

Adult Hardcore XXX Sex Videos 4965

Wow porn hd downloads 225065 ryushare uploaded keep2share

Wow porn hd downloads 225065

Alice – Newbie Paid for Taking a Cumshot ryushare uploaded keep2share

Alice – Newbie Paid for Taking a Cumshot

[LegalPorno.com] Rebecca Volpetti GANGBANG SZ1350 [2016 г., Anal, Gonzo, 720p] ryushare uploaded keep2share

[LegalPorno.com] Rebecca Volpetti GANGBANG SZ1350 [2016 г., Anal, Gonzo, 720p]

hd short heighted pron movies 226316 ryushare uploaded keep2share

hd short heighted pron movies 226316

Teen porn movies 5598 ryushare uploaded keep2share

Teen porn movies 5598

Uploaded net porn XXX 225827 ryushare uploaded keep2share

Uploaded net porn XXX 225827

Eva Karera, Jasmine Gomez, TeachSex ryushare uploaded keep2share

Eva Karera, Jasmine Gomez, TeachSex

Report broken links / Post a comment

You must be logged in to post a comment.



General\r\nComplete name : D:JDdescargasdenise_skydenise_sky_020114.mp4\r\nFormat : MPEG-4\r\nFormat profile : Base Media\r\nCodec ID : isom\r\nFile size : 1.06 GiB\r\nDuration : 24mn 23s\r\nOverall bit rate : 6 215 Kbps\r\nMovie name : Downloaded from RARBG.COM\r\nWriting application : Lavf55.21.100\r\nComment : Downloaded from RARBG.COM\r\n\r\nVideo\r\nID : 1\r\nFormat : AVC\r\nFormat/Info : Advanced Video Codec\r\nFormat profile : [email protected]\r\nFormat settings, CABAC : Yes\r\nFormat settings, ReFrames : 4 frames\r\nCodec ID : avc1\r\nCodec ID/Info : Advanced Video Coding\r\nDuration : 24mn 23s\r\nBit rate : 6 019 Kbps\r\nWidth : 1 920 pixels\r\nHeight : 1 080 pixels\r\nDisplay aspect ratio : 16:9\r\nFrame rate mode : Constant\r\nFrame rate : 25.000 fps\r\nStandard : PAL\r\nColor space : YUV\r\nChroma subsampling : 4:2:0\r\nBit depth : 8 bits\r\nScan type : Progressive\r\nBits/(Pixel*Frame) : 0.116\r\nStream size : 1.03 GiB (97%)\r\nLanguage : English\r\nColor primaries : BT.709\r\nTransfer characteristics : BT.709\r\nMatrix coefficients : BT.709\r\n\r\nAudio\r\nID : 2\r\nFormat : AAC\r\nFormat/Info : Advanced Audio Codec\r\nFormat profile : LC\r\nCodec ID : 40\r\nDuration : 24mn 23s\r\nBit rate mode : Constant\r\nBit rate : 192 Kbps\r\nChannel(s) : 2 channels\r\nChannel positions : Front: L R\r\nSampling rate : 48.0 KHz\r\nCompression mode : Lossy\r\nStream size : 33.0 MiB (3%)\r\nLanguage : English\r\n\r\n