Daisy, Jasmine – Boats n Hoes

Watch Teen Sex Videos HD 121618OnlyGirls Nikita (Gina Devine) Here I Cum!

Posted in Amateur, HD Porn, Sex Movies, Threesome | 11160 Views |


Rate this girl !!!




Daisy, Jasmine – Boats n Hoes

\r\n

Daisy, Jasmine - Boats n Hoes 1

\r\n

Type: mp4\r\nDuration: 00h37m01s\r\nResolution: 854 x 480p\r\nFileSize: 595 MB

\r\n

Daisy, Jasmine - Boats n Hoes 2

\r\n



DOWNLOAD

Keep2share.cc - Uploaded.net - Openload.co - Rapidu.net


http://fileom.com/4rq3d4b16y1w/u...23_360p.mp4.html
http://ul.to/pzq7bng8/u...23_360p.mp4
http://k2s.cc/file/91b1700807a86/u...23_360p.mp4


Premium here:
uploaded.net
keep2share.cc
rapidu.net.cc

Teens related to Daisy, Jasmine – Boats n Hoes


HD Teen Sex Tube 3572 ryushare uploaded keep2share

HD Teen Sex Tube 3572

HD Porn Video 1239 ryushare uploaded keep2share

HD Porn Video 1239

Teen Sex Movies Young Porn Tube Vids 225825 ryushare uploaded keep2share

Teen Sex Movies Young Porn Tube Vids 225825

Kiara Lord – Window ryushare uploaded keep2share

Kiara Lord – Window

Hd young videos 224038 ryushare uploaded keep2share

Hd young videos 224038

Wow Girls Porn Clips download 225097 ryushare uploaded keep2share

Wow Girls Porn Clips download 225097

fucking sex hd download 226750 ryushare uploaded keep2share

fucking sex hd download 226750

Teen Porn XXX Tube 225857 ryushare uploaded keep2share

Teen Porn XXX Tube 225857

1080p pornstar 226032 ryushare uploaded keep2share

1080p pornstar 226032

Teens sex mania 225265 ryushare uploaded keep2share

Teens sex mania 225265

www sexxxxxx cm ryushare uploaded keep2share

www sexxxxxx cm

Hardcore Sex Hub 224876 ryushare uploaded keep2share

Hardcore Sex Hub 224876

Young Sex Movies 225934 ryushare uploaded keep2share

Young Sex Movies 225934

Teen Porn XXX Tube 225930 ryushare uploaded keep2share

Teen Porn XXX Tube 225930

Nubilefilms.com Elena Rae – Russian Beauty ryushare uploaded keep2share

Nubilefilms.com Elena Rae – Russian Beauty

Teen Sex Videos Tube Movies 225390 ryushare uploaded keep2share

Teen Sex Videos Tube Movies 225390

Good Teen Tube Sexy Young Naked Girls Movies 4454 ryushare uploaded keep2share

Good Teen Tube Sexy Young Naked Girls Movies 4454

www sexvideo hd1280 226502 ryushare uploaded keep2share

www sexvideo hd1280 226502

porn sex full hd high quality free downloding 226345 ryushare uploaded keep2share

porn sex full hd high quality free downloding 226345

tits free ryushare uploaded keep2share

tits free

Young Sex Movies 4459 ryushare uploaded keep2share

Young Sex Movies 4459

sex xxx hd new 98 226668 ryushare uploaded keep2share

sex xxx hd new 98 226668

Beata Undine – cumshot compilation ryushare uploaded keep2share

Beata Undine – cumshot compilation

Www xxx18yaer hd vido com 226552 ryushare uploaded keep2share

Www xxx18yaer hd vido com 226552

Porn party teen girls 225121 ryushare uploaded keep2share

Porn party teen girls 225121

Teen 18 Porn XXX Clips Naked 1367 ryushare uploaded keep2share

Teen 18 Porn XXX Clips Naked 1367

HD Teen Sex Tube 1127 ryushare uploaded keep2share

HD Teen Sex Tube 1127

Hd young videos 225366 ryushare uploaded keep2share

Hd young videos 225366

Teens sex mania 225041 ryushare uploaded keep2share

Teens sex mania 225041

hq Pron movies downlod ryushare uploaded keep2share

hq Pron movies downlod

8 Teen XXX – Teen Sex 4550 ryushare uploaded keep2share

8 Teen XXX – Teen Sex 4550

Julie Vee ryushare uploaded keep2share

Julie Vee

NubilesPorn.com Jessie Volt – Juste Toi Et Moi ryushare uploaded keep2share

NubilesPorn.com Jessie Volt – Juste Toi Et Moi

Porn HD Sex HD Teen Sex 225023 ryushare uploaded keep2share

Porn HD Sex HD Teen Sex 225023

The best Teen sex 2589 ryushare uploaded keep2share

The best Teen sex 2589

Report broken links / Post a comment

You must be logged in to post a comment.



General\r\nComplete name : D: HD teen mania PORN DOWNLOADS MOVIES Daisy, Jasmine - Boats n Hoes Daisy,_Jasmine_-_Boats_n_HoesD4isy.J4smin3..Bo4ts.n.Ho3s.MP4\r\nFormat : MPEG-4\r\nFormat profile : Base Media\r\nCodec ID : isom\r\nFile size : 595 MiB\r\nDuration : 37mn 1s\r\nOverall bit rate : 2 248 Kbps\r\nWriting application : Lavf55.1.100\r\n\r\nVideo\r\nID : 1\r\nFormat : AVC\r\nFormat/Info : Advanced Video Codec\r\nFormat profile : [email protected]\r\nFormat settings, CABAC : Yes\r\nFormat settings, ReFrames : 5 frames\r\nCodec ID : avc1\r\nCodec ID/Info : Advanced Video Coding\r\nDuration : 37mn 1s\r\nBit rate : 2 000 Kbps\r\nWidth : 854 pixels\r\nHeight : 480 pixels\r\nDisplay aspect ratio : 16:9\r\nFrame rate mode : Constant\r\nFrame rate : 29.970 fps\r\nColor space : YUV\r\nChroma subsampling : 4:2:0\r\nBit depth : 8 bits\r\nScan type : Progressive\r\nBits/(Pixel*Frame) : 0.163\r\nStream size : 534 MiB (90%)\r\nWriting library : x264 core 130 r2274 c832fe9\r\nEncoding settings : cabac=1 / ref=5 / deblock=1:0:0 / analyse=0x3:0x113 / me=umh / subme=8 / psy=1 / psy_rd=1.00:0.00 / mixed_ref=1 / me_range=16 / chroma_me=1 / trellis=1 / 8x8dct=1 / cqm=0 / deadzone=21,11 / fast_pskip=1 / chroma_qp_offset=-2 / threads=36 / lookahead_threads=3 / sliced_threads=0 / nr=0 / decimate=1 / interlaced=0 / bluray_compat=0 / constrained_intra=0 / bframes=3 / b_pyramid=2 / b_adapt=2 / b_bias=0 / direct=3 / weightb=1 / open_gop=0 / weightp=2 / keyint=60 / keyint_min=6 / scenecut=40 / intra_refresh=0 / rc_lookahead=50 / rc=abr / mbtree=1 / bitrate=2000 / ratetol=1.0 / qcomp=0.60 / qpmin=0 / qpmax=69 / qpstep=4 / ip_ratio=1.40 / aq=1:1.00\r\nTagged date : UTC 2013-11-23 16:51:10\r\n\r\nAudio\r\nID : 2\r\nFormat : AAC\r\nFormat/Info : Advanced Audio Codec\r\nFormat profile : LC\r\nCodec ID : 40\r\nDuration : 37mn 1s\r\nDuration_LastFrame : 33ms\r\nBit rate mode : Constant\r\nBit rate : 128 Kbps\r\nChannel(s) : 2 channels\r\nChannel positions : Front: L R\r\nSampling rate : 48.0 KHz\r\nCompression mode : Lossy\r\nStream size : 33.9 MiB (6%)\r\nTagged date : UTC 2013-11-23 16:51:10\r\n\r\n