College Teen Sex 1898

Free High Quality Sex Movies 1901High Definition Movies on HD 1894

Posted in HD Porn, Pornstar, Sex Movies, Teen, Threesome | 40301 Views |


Rate this girl !!!




\r\n\r\nhttp://img56.imagetwist.com/i/05293/1x5xqcgf9fqw.jpg\r\n\r\n Link(509 Mb||13:37||1280*720||MP4)



DOWNLOAD

Keep2share.cc - Uploaded.net - Openload.co - Rapidu.net


http://keep2share.cc/file/782dce81a5398
http://ryushare.com/rzja9hrp8mci/NBSGRFxy.rar
http://ul.to/9ja0g7ek


Premium here:
uploaded.net
keep2share.cc
rapidu.net.cc


Teens related to College Teen Sex 1898


21Naturals.com Doris Ivy – Unchained ryushare uploaded keep2share

21Naturals.com Doris Ivy – Unchained

Young Virgin Pussy Teen Fuck Tube 224676 ryushare uploaded keep2share

Young Virgin Pussy Teen Fuck Tube 224676

Wow Girls Porn Clips download 224663 ryushare uploaded keep2share

Wow Girls Porn Clips download 224663

Teen Sex Videos Tube Movies 3048 ryushare uploaded keep2share

Teen Sex Videos Tube Movies 3048

jaaz sex movis 226121 ryushare uploaded keep2share

jaaz sex movis 226121

HD Sex World Videos High Definition Free Porn 3501 ryushare uploaded keep2share

HD Sex World Videos High Definition Free Porn 3501

HQ Sex Movies Download 1982 ryushare uploaded keep2share

HQ Sex Movies Download 1982

HD Porn Teen Sex Videos 3944 ryushare uploaded keep2share

HD Porn Teen Sex Videos 3944

Young Sex Movies 225619 ryushare uploaded keep2share

Young Sex Movies 225619

XXX/H/XX/ ryushare uploaded keep2share

XXX/H/XX/

Free Porn Videos Xxx Movies Pussy Porn 3666 ryushare uploaded keep2share

Free Porn Videos Xxx Movies Pussy Porn 3666

Teen porn movies 224601 ryushare uploaded keep2share

Teen porn movies 224601

HD Teen Sex Tube 3488 ryushare uploaded keep2share

HD Teen Sex Tube 3488

Teen Sex Movies 4310 ryushare uploaded keep2share

Teen Sex Movies 4310

Xxx 888 226518 ryushare uploaded keep2share

Xxx 888 226518

HD Teen Sex Tube 3628 ryushare uploaded keep2share

HD Teen Sex Tube 3628

Nude Teens fucking hard 225375 ryushare uploaded keep2share

Nude Teens fucking hard 225375

Fresh Teen Videos 224791 ryushare uploaded keep2share

Fresh Teen Videos 224791

Girls sex art hd teens videos 224625 ryushare uploaded keep2share

Girls sex art hd teens videos 224625

HD sex movies downloads 2769 ryushare uploaded keep2share

HD sex movies downloads 2769

SpinChix mp4 226131 ryushare uploaded keep2share

SpinChix mp4 226131

Girls sex art hd teens videos 224203 ryushare uploaded keep2share

Girls sex art hd teens videos 224203

Foxy Di – I’m all yours ryushare uploaded keep2share

Foxy Di – I’m all yours

[PublicAgent.com] Cindy Loarn – Bubble Butt Babe Fucked in a Car ryushare uploaded keep2share

[PublicAgent.com] Cindy Loarn – Bubble Butt Babe Fucked in a Car

Nubilefilms.com Elena Rae – Russian Beauty ryushare uploaded keep2share

Nubilefilms.com Elena Rae – Russian Beauty

HD Porn Videos 1271 ryushare uploaded keep2share

HD Porn Videos 1271

High Definition Movies on HD 4166 ryushare uploaded keep2share

High Definition Movies on HD 4166

WowGirls.com Vanda – The pleasure Is All Mine ryushare uploaded keep2share

WowGirls.com Vanda – The pleasure Is All Mine

Teeny Tini Striptease ryushare uploaded keep2share

Teeny Tini Striptease

Girls sex art hd teens videos 5327 ryushare uploaded keep2share

Girls sex art hd teens videos 5327

High Definition Movies on HD Teen Porn XXX Tube 2211 ryushare uploaded keep2share

High Definition Movies on HD Teen Porn XXX Tube 2211

My bigtits girlfriend fornication – in the sack ryushare uploaded keep2share

My bigtits girlfriend fornication – in the sack

A Place With A View – WowPorn ryushare uploaded keep2share

A Place With A View – WowPorn

bf 1080p xxxx sex xxx hd bf 226698 ryushare uploaded keep2share

bf 1080p xxxx sex xxx hd bf 226698

Teenage Fuck Clips 2806 ryushare uploaded keep2share

Teenage Fuck Clips 2806

Report broken links / Post a comment

You must be logged in to post a comment.



General\r\nComplete name : D:HD Teens Download Porn Sex clips movies Tube.xxxNBSGRFxyNBSGRFxy.mp4\r\nFormat : MPEG-4\r\nFormat profile : Base Media\r\nCodec ID : isom\r\nFile size : 509 MiB\r\nDuration : 13mn 37s\r\nOverall bit rate mode : Variable\r\nOverall bit rate : 5 228 Kbps\r\nWriting application : Lavf55.16.102\r\n\r\nVideo\r\nID : 1\r\nFormat : AVC\r\nFormat/Info : Advanced Video Codec\r\nFormat profile : [email protected]\r\nFormat settings, CABAC : Yes\r\nFormat settings, ReFrames : 4 frames\r\nCodec ID : avc1\r\nCodec ID/Info : Advanced Video Coding\r\nDuration : 13mn 37s\r\nBit rate : 5 108 Kbps\r\nWidth : 1 280 pixels\r\nHeight : 720 pixels\r\nDisplay aspect ratio : 16:9\r\nFrame rate mode : Constant\r\nFrame rate : 29.970 fps\r\nColor space : YUV\r\nChroma subsampling : 4:2:0\r\nBit depth : 8 bits\r\nScan type : Progressive\r\nBits/(Pixel*Frame) : 0.185\r\nStream size : 498 MiB (98%)\r\nWriting library : x264 core 123 r2189 35cf912\r\nEncoding settings : cabac=1 / ref=2 / deblock=1:-1:-1 / analyse=0x1:0x111 / me=umh / subme=8 / psy=1 / psy_rd=1.00:0.15 / mixed_ref=1 / me_range=16 / chroma_me=1 / trellis=1 / 8x8dct=0 / cqm=0 / deadzone=21,11 / fast_pskip=1 / chroma_qp_offset=-3 / threads=10 / sliced_threads=0 / nr=0 / decimate=1 / interlaced=0 / bluray_compat=0 / constrained_intra=0 / bframes=3 / b_pyramid=2 / b_adapt=2 / b_bias=0 / direct=3 / weightb=1 / open_gop=0 / weightp=0 / keyint=250 / keyint_min=25 / scenecut=40 / intra_refresh=0 / rc_lookahead=50 / rc=crf / mbtree=1 / crf=17.0 / qcomp=0.60 / qpmin=0 / qpmax=69 / qpstep=4 / ip_ratio=1.40 / aq=1:1.00\r\nLanguage : English\r\n\r\nAudio\r\nID : 2\r\nFormat : AAC\r\nFormat/Info : Advanced Audio Codec\r\nFormat profile : LC\r\nCodec ID : 40\r\nDuration : 13mn 37s\r\nDuration_LastFrame : -20ms\r\nBit rate mode : Variable\r\nBit rate : 111 Kbps\r\nMaximum bit rate : 196 Kbps\r\nChannel(s) : 2 channels\r\nChannel positions : Front: L R\r\nSampling rate : 44.1 KHz\r\nCompression mode : Lossy\r\nStream size : 10.8 MiB (2%)\r\nLanguage : English\r\n\r\n