Cecilia, Vanda – Everlasting Love

Silvie Deluxe – Just A MinuteNorma – Welcome to fuck her for cash

Posted in Amateur, HD Porn, Lesbian, Sex Movies, Teen | 17856 Views |


Rate this girl !!!




cover

\r\n

1920x1080p / MP4 / 1.03 GB

\r\n\r\n

[18Onlygirls.com] Cecilia, Vanda – Everlasting Love

\r\n \r\n

SCREENSHOTS:

\r\n

screens



DOWNLOAD

Keep2share.cc - Uploaded.net - Openload.co - Rapidu.net


http://k2s.cc/file/b6b5c06f99258/C3c1l14%2C.V4nd4.mp4

http://ul.to/06nnjxgq/C3c1l14,.V4nd4.mp4


Premium here:
uploaded.net
keep2share.cc
rapidu.net.cc

Teens related to Cecilia, Vanda – Everlasting Love


Teen 18 Porn XXX Clips Naked 3853 ryushare uploaded keep2share

Teen 18 Porn XXX Clips Naked 3853

Www sex Full PcVideo ryushare uploaded keep2share

Www sex Full PcVideo

Free Young Porn Videos XXX Teen Porn 3495 ryushare uploaded keep2share

Free Young Porn Videos XXX Teen Porn 3495

HD porn teen downloads 2715 ryushare uploaded keep2share

HD porn teen downloads 2715

Teens Sweet orgy ryushare uploaded keep2share

Teens Sweet orgy

Porn HD Sex HD Teen Sex 3480 ryushare uploaded keep2share

Porn HD Sex HD Teen Sex 3480

Sara Luvv (Every Inch) ryushare uploaded keep2share

Sara Luvv (Every Inch)

Tube Young Sex 224974 ryushare uploaded keep2share

Tube Young Sex 224974

Monroe – Sweet And Tender ryushare uploaded keep2share

Monroe – Sweet And Tender

Hot download sex girls movies 5477 ryushare uploaded keep2share

Hot download sex girls movies 5477

Wow Girls Porn Clips download 224521 ryushare uploaded keep2share

Wow Girls Porn Clips download 224521

hd yes xxxporn ryushare uploaded keep2share

hd yes xxxporn

HD Porn Videos 5664 ryushare uploaded keep2share

HD Porn Videos 5664

pron xxx hq 1280p 226224 ryushare uploaded keep2share

pron xxx hq 1280p 226224

Tube Young Sex 1406 ryushare uploaded keep2share

Tube Young Sex 1406

wwwxxxsexvedios 226609 ryushare uploaded keep2share

wwwxxxsexvedios 226609

Hardcore sex videos in the high definition quality 224111 ryushare uploaded keep2share

Hardcore sex videos in the high definition quality 224111

High Definition Movies on HD 4166 ryushare uploaded keep2share

High Definition Movies on HD 4166

[Youngthroats.com] Ness ryushare uploaded keep2share

[Youngthroats.com] Ness

porn xxx sax move com ryushare uploaded keep2share

porn xxx sax move com

gina devine seks 226666 ryushare uploaded keep2share

gina devine seks 226666

Adele Sunshine – George on Adele ryushare uploaded keep2share

Adele Sunshine – George on Adele

Young Virgin Pussy Teen Fuck Tube 1916 ryushare uploaded keep2share

Young Virgin Pussy Teen Fuck Tube 1916

Young Sex Movies 225490 ryushare uploaded keep2share

Young Sex Movies 225490

foto xxx porn girl ryushare uploaded keep2share

foto xxx porn girl

Carmen Fox – Fucked by the best client ryushare uploaded keep2share

Carmen Fox – Fucked by the best client

descargar cindy_96 226727 ryushare uploaded keep2share

descargar cindy_96 226727

Silvie Deluxe & Matt Ice – Drive ryushare uploaded keep2share

Silvie Deluxe & Matt Ice – Drive

Free Teen Porn Videos at Teen Sex Tube XXX 224787 ryushare uploaded keep2share

Free Teen Porn Videos at Teen Sex Tube XXX 224787

HD Porn Teen Sex Videos 4268 ryushare uploaded keep2share

HD Porn Teen Sex Videos 4268

Teen sex xxx hd 2916 ryushare uploaded keep2share

Teen sex xxx hd 2916

Uploaded net porn XXX 5126 ryushare uploaded keep2share

Uploaded net porn XXX 5126

Hardcore sex videos in the high definition quality 4955 ryushare uploaded keep2share

Hardcore sex videos in the high definition quality 4955

Tantric Massage – All Sex HD1080p ryushare uploaded keep2share

Tantric Massage – All Sex HD1080p

Argentina loves showing off her nice big boobs ryushare uploaded keep2share

Argentina loves showing off her nice big boobs

Report broken links / Post a comment

You must be logged in to post a comment.



General\r\nComplete name : D:[18Onlygirls.com] Cecilia, Vanda – Everlasting Love.mp4\r\nFormat : MPEG-4\r\nFormat profile : Base Media\r\nCodec ID : isom\r\nFile size : 1.03 GiB\r\nDuration : 30mn 39s\r\nOverall bit rate : 4 795 Kbps\r\nSeason : 0\r\nMovie name : ES\r\nPart : 0\r\nGenre : Abstract\r\nContentType : Movie\r\nWriting application : Lavf55.48.100\r\nrati : (Binary)\r\n\r\nVideo\r\nID : 1\r\nFormat : AVC\r\nFormat/Info : Advanced Video Codec\r\nFormat profile : [email protected]\r\nFormat settings, CABAC : Yes\r\nFormat settings, ReFrames : 2 frames\r\nCodec ID : avc1\r\nCodec ID/Info : Advanced Video Coding\r\nDuration : 30mn 39s\r\nBit rate : 4 701 Kbps\r\nWidth : 1 920 pixels\r\nHeight : 1 080 pixels\r\nDisplay aspect ratio : 16:9\r\nFrame rate mode : Constant\r\nFrame rate : 29.970 fps\r\nColor space : YUV\r\nChroma subsampling : 4:2:0\r\nBit depth : 8 bits\r\nScan type : Progressive\r\nBits/(Pixel*Frame) : 0.076\r\nStream size : 1.01 GiB (98%)\r\nWriting library : x264 core 102 r1666 d058f37\r\nEncoding settings : cabac=1 / ref=2 / deblock=1:0:0 / analyse=0x3:0x113 / me=hex / subme=6 / psy=1 / psy_rd=1.00:0.00 / mixed_ref=0 / me_range=16 / chroma_me=1 / trellis=0 / 8x8dct=1 / cqm=0 / deadzone=21,11 / fast_pskip=1 / chroma_qp_offset=-2 / threads=24 / sliced_threads=0 / nr=0 / decimate=1 / interlaced=0 / constrained_intra=0 / bframes=3 / b_pyramid=0 / b_adapt=1 / b_bias=0 / direct=3 / weightb=1 / open_gop=0 / weightp=2 / keyint=250 / keyint_min=25 / scenecut=40 / intra_refresh=0 / rc_lookahead=40 / rc=crf / mbtree=1 / crf=20.0 / qcomp=0.60 / qpmin=10 / qpmax=51 / qpstep=4 / ip_ratio=1.41 / aq=1:1.00\r\n\r\nAudio\r\nID : 2\r\nFormat : AAC\r\nFormat/Info : Advanced Audio Codec\r\nFormat profile : LC\r\nCodec ID : 40\r\nDuration : 30mn 39s\r\nBit rate mode : Constant\r\nBit rate : 86.4 Kbps\r\nChannel(s) : 2 channels\r\nChannel positions : Front: L R\r\nSampling rate : 44.1 KHz\r\nCompression mode : Lossy\r\nStream size : 19.0 MiB (2%)\r\n\r\n