Caught Up In The Moment – Carmen Fox

Lena, Galina - Fucking Together is AwesomeDaisy Summers (Don’t Tell Your Sister Seriously)

Posted in HD Porn, Pornstar, Sex Movies, Teen | 21394 Views |


Rate this girl !!!




[Nubiles.net] Dila (AKA: Carmen Fox, Dila, Iriska, Katherine Aarmen Fox, Lena) – Caught Up In The Moment (25.12.2013 g) [Anal Sex, Hardcore, Teen, Flexible] [1080p]\r\n\r\npic\r\n\r\nVideo format: mp4\r\nDuration: 00:20:43\r\nVideo: AVC; 1920×1080 (16:9); 7131 Kbps; 29,970 fps; 0,115 bpp\r\nAudio: English; AAC LC; 108 Kbps; CBR; 2 ch\r\n\r\nloading\r\n\r\nloading\r\n\r\nloading\r\n\r\n 



DOWNLOAD

Keep2share.cc - Uploaded.net - Openload.co - Rapidu.net


http://ul.to/d6yo94dj
http://ryushare.com/caih4rz4lg0c/nub1l3s.13.12.25.d1l4.h4rdc0r3.mp4
http://keep2share.cc/ile/52b5289e1d453


Premium here:
uploaded.net
keep2share.cc
rapidu.net.cc

Teens related to Caught Up In The Moment – Carmen Fox


Teen porn movies 223816 ryushare uploaded keep2share

Teen porn movies 223816

Wow porn hd downloads 224274 ryushare uploaded keep2share

Wow porn hd downloads 224274

Pretty skinny girl in casting video ryushare uploaded keep2share

Pretty skinny girl in casting video

HD Teen Sex Tube 224188 ryushare uploaded keep2share

HD Teen Sex Tube 224188

Young XXX Tube Videos 2002 ryushare uploaded keep2share

Young XXX Tube Videos 2002

Small girls and boys porn 2528 ryushare uploaded keep2share

Small girls and boys porn 2528

Teen Porn XXX Tube 4159 ryushare uploaded keep2share

Teen Porn XXX Tube 4159

21Naturals.com Ava Dalush – Puppeteer ryushare uploaded keep2share

21Naturals.com Ava Dalush – Puppeteer

xxx 18 yars sex gurl download 226760 ryushare uploaded keep2share

xxx 18 yars sex gurl download 226760

Free Young Porn Videos XXX Teen Porn 224328 ryushare uploaded keep2share

Free Young Porn Videos XXX Teen Porn 224328

hd format sex video free downloado 226108 ryushare uploaded keep2share

hd format sex video free downloado 226108

Alice – Newbie Paid for Taking a Cumshot ryushare uploaded keep2share

Alice – Newbie Paid for Taking a Cumshot

HD Porn Teen Sex Videos 225071 ryushare uploaded keep2share

HD Porn Teen Sex Videos 225071

xxx18 yes 226216 ryushare uploaded keep2share

xxx18 yes 226216

xxxsex video download short 226232 ryushare uploaded keep2share

xxxsex video download short 226232

18 year girl xxxx downlode ryushare uploaded keep2share

18 year girl xxxx downlode

Teen Sex Porn Videos Free Nude Teens 224616 ryushare uploaded keep2share

Teen Sex Porn Videos Free Nude Teens 224616

Wow girls porn teens 4595 ryushare uploaded keep2share

Wow girls porn teens 4595

xxx teensexvideos3 4 mb 226244 ryushare uploaded keep2share

xxx teensexvideos3 4 mb 226244

Tube Young Sex 224718 ryushare uploaded keep2share

Tube Young Sex 224718

Watch Teen Sex Videos HD 225256 ryushare uploaded keep2share

Watch Teen Sex Videos HD 225256

Girls sex art hd teens videos 223832 ryushare uploaded keep2share

Girls sex art hd teens videos 223832

Bella Baby – Opposites Attract ryushare uploaded keep2share

Bella Baby – Opposites Attract

Young Virgin Pussy Teen Fuck Tube 4403 ryushare uploaded keep2share

Young Virgin Pussy Teen Fuck Tube 4403

Small girls and boys porn 2683 ryushare uploaded keep2share

Small girls and boys porn 2683

hd short heighted pron movies 226316 ryushare uploaded keep2share

hd short heighted pron movies 226316

Grace Hot Teen ryushare uploaded keep2share

Grace Hot Teen

Tube xxx 225500 ryushare uploaded keep2share

Tube xxx 225500

Wow girls downloads hd 224557 ryushare uploaded keep2share

Wow girls downloads hd 224557

Pornstar teen fucked in all holes ryushare uploaded keep2share

Pornstar teen fucked in all holes

phog bf xxx ryushare uploaded keep2share

phog bf xxx

pornosexxx hd 226414 ryushare uploaded keep2share

pornosexxx hd 226414

The best Teen sex 6196 ryushare uploaded keep2share

The best Teen sex 6196

18OnlyGirls Nikita (Gina Devine) Here I Cum! ryushare uploaded keep2share

18OnlyGirls Nikita (Gina Devine) Here I Cum!

www pussyHD picture ryushare uploaded keep2share

www pussyHD picture

Report broken links / Post a comment

You must be logged in to post a comment.



General\r\nComplete name : D:nubiles.13.12.25.d1l4.hardcore.carmen fox.mp4\r\nFormat : MPEG-4\r\nFormat profile : Base Media\r\nCodec ID : isom\r\nFile size : 1.09 GiB\r\nDuration : 20mn 43s\r\nOverall bit rate : 7 548 Kbps\r\nMovie name : HDteenmania.com Free Porn Downloads\r\nWriting application : Lavf55.21.100\r\nComment : HDteenmania.com Free Porn Downloads\r\n\r\nVideo\r\nID : 1\r\nFormat : AVC\r\nFormat/Info : Advanced Video Codec\r\nFormat profile : [email protected]\r\nFormat settings, CABAC : Yes\r\nFormat settings, ReFrames : 4 frames\r\nCodec ID : avc1\r\nCodec ID/Info : Advanced Video Coding\r\nDuration : 20mn 43s\r\nBit rate : 7 431 Kbps\r\nWidth : 1 920 pixels\r\nHeight : 1 080 pixels\r\nDisplay aspect ratio : 16:9\r\nFrame rate mode : Constant\r\nFrame rate : 29.970 fps\r\nColor space : YUV\r\nChroma subsampling : 4:2:0\r\nBit depth : 8 bits\r\nScan type : Progressive\r\nBits/(Pixel*Frame) : 0.120\r\nStream size : 1.08 GiB (98%)\r\nWriting library : x264 core 138\r\nEncoding settings : cabac=1 / ref=2 / deblock=1:-1:-1 / analyse=0x1:0x111 / me=umh / subme=8 / psy=1 / psy_rd=1.00:0.15 / mixed_ref=1 / me_range=16 / chroma_me=1 / trellis=1 / 8x8dct=0 / cqm=0 / deadzone=21,11 / fast_pskip=1 / chroma_qp_offset=-3 / threads=2 / lookahead_threads=1 / sliced_threads=0 / nr=0 / decimate=1 / interlaced=0 / bluray_compat=0 / constrained_intra=0 / bframes=3 / b_pyramid=2 / b_adapt=2 / b_bias=0 / direct=3 / weightb=1 / open_gop=0 / weightp=0 / keyint=250 / keyint_min=25 / scenecut=40 / intra_refresh=0 / rc_lookahead=50 / rc=crf / mbtree=1 / crf=18.0 / qcomp=0.60 / qpmin=0 / qpmax=69 / qpstep=4 / ip_ratio=1.40 / aq=1:1.00\r\nLanguage : English\r\n\r\nAudio\r\nID : 2\r\nFormat : AAC\r\nFormat/Info : Advanced Audio Codec\r\nFormat profile : LC\r\nCodec ID : 40\r\nDuration : 20mn 43s\r\nDuration_LastFrame : 11ms\r\nBit rate mode : Constant\r\nBit rate : 109 Kbps\r\nChannel count : 2 channels\r\nChannel positions : Front: L R\r\nSampling rate : 44.1 KHz\r\nCompression mode : Lossy\r\nStream size : 16.1 MiB (1%)\r\nLanguage : English\r\n\r\n