Blonde fucked in all holes. Gang Bang

Schoolgirl white skinHot brunette - blowjob and fucked

Posted in HD Porn, Sex Movies, Teen, Threesome | 17948 Views |


Rate this girl !!!




\r\n\r\n\r\n10.jpeg\r\n\r\nBlonde fucked in all holes. Gang Bang\r\n\r\n Link(985 Mb||22:16||1920*1080||MP4)



DOWNLOAD

Keep2share.cc - Uploaded.net - Openload.co - Rapidu.net


http://ryushare.com/281bd4dbf1a1/DPRDCNln.rar
http://keep2share.cc/file/52ddbde320b8e
http://ul.to/w4s555xc


Premium here:
uploaded.net
keep2share.cc
rapidu.net.cc

Teens related to Blonde fucked in all holes. Gang Bang


College Teen Sex 6536 ryushare uploaded keep2share

College Teen Sex 6536

www hd video 18 xxx 226637 ryushare uploaded keep2share

www hd video 18 xxx 226637

Alyona, Klara & Paloma – Strap-on Adventure ryushare uploaded keep2share

Alyona, Klara & Paloma – Strap-on Adventure

Susan Ayn ryushare uploaded keep2share

Susan Ayn

Sweet Teen Porn – Young Porn Videos 225089 ryushare uploaded keep2share

Sweet Teen Porn – Young Porn Videos 225089

FuckStudies.com El Storm ryushare uploaded keep2share

FuckStudies.com El Storm

Teen porn xxx 224307 ryushare uploaded keep2share

Teen porn xxx 224307

Good Teen Tube Sexy Young Naked Girls Movies 2370 ryushare uploaded keep2share

Good Teen Tube Sexy Young Naked Girls Movies 2370

Teenies Videos – Teen Porn, Teen Sex, XXX Free Videos 1828 ryushare uploaded keep2share

Teenies Videos – Teen Porn, Teen Sex, XXX Free Videos 1828

Teen xxx sex hd 225384 ryushare uploaded keep2share

Teen xxx sex hd 225384

8 Teen XXX – Teen Sex 225179 ryushare uploaded keep2share

8 Teen XXX – Teen Sex 225179

HD Sex World Videos High Definition Free Porn 3888 ryushare uploaded keep2share

HD Sex World Videos High Definition Free Porn 3888

littel fresh teen porn mp4 226046 ryushare uploaded keep2share

littel fresh teen porn mp4 226046

First time Sexual Films 18 sex xxx 225796 ryushare uploaded keep2share

First time Sexual Films 18 sex xxx 225796

Yulia – Wild Anal Slut Owned In The Forest ryushare uploaded keep2share

Yulia – Wild Anal Slut Owned In The Forest

teenssexdownloa 226445 ryushare uploaded keep2share

teenssexdownloa 226445

HD Teen Sex Tube 225339 ryushare uploaded keep2share

HD Teen Sex Tube 225339

Christina Snow – NubilesFilms – Join In ryushare uploaded keep2share

Christina Snow – NubilesFilms – Join In

Xxx fuka in 226353 ryushare uploaded keep2share

Xxx fuka in 226353

First time Sexual Films 18 sex xxx 225849 ryushare uploaded keep2share

First time Sexual Films 18 sex xxx 225849

PORN HUB HQ SEXY DUONLOD com 226478 ryushare uploaded keep2share

PORN HUB HQ SEXY DUONLOD com 226478

1By-Day.com / DDFNetwork.com] Valentina Ricci – Sudsy Snatch – Belgian Beauty Masturbates in the Tub (01.12.2016 г.) [Bath, Bathroom, Brunette, Enhanced Tits, Fingering, High Heels, Lingerie, Piercing, Trimmed Pussy, Solo, Medium Tits, 1080p] ryushare uploaded keep2share

1By-Day.com / DDFNetwork.com] Valentina Ricci – Sudsy Snatch – Belgian Beauty Masturbates in the Tub (01.12.2016 г.) [Bath, Bathroom, Brunette, Enhanced Tits, Fingering, High Heels, Lingerie, Piercing, Trimmed Pussy, Solo, Medium Tits, 1080p]

www HD fuck vido 226084 ryushare uploaded keep2share

www HD fuck vido 226084

Whitney Conroy & Alexis Crystal – Sheets In The Wind ryushare uploaded keep2share

Whitney Conroy & Alexis Crystal – Sheets In The Wind

Free Teen Porn – Redhair teen XXX ryushare uploaded keep2share

Free Teen Porn – Redhair teen XXX

Teen Porn XXX Tube 3791 ryushare uploaded keep2share

Teen Porn XXX Tube 3791

TeenyLovers – Zlata ryushare uploaded keep2share

TeenyLovers – Zlata

21FootArt.com Vanda Lust – Kitchen Romance ryushare uploaded keep2share

21FootArt.com Vanda Lust – Kitchen Romance

www8ten sex xxx com ryushare uploaded keep2share

www8ten sex xxx com

Nude Teens fucking hard 1617 ryushare uploaded keep2share

Nude Teens fucking hard 1617

hd small mbporn video sites 226424 ryushare uploaded keep2share

hd small mbporn video sites 226424

hd full vergin sex video download ryushare uploaded keep2share

hd full vergin sex video download

Kavol Lilien ryushare uploaded keep2share

Kavol Lilien

HD Sex World Videos High Definition Free Porn 1554 ryushare uploaded keep2share

HD Sex World Videos High Definition Free Porn 1554

Hardcore Sex Hub 224542 ryushare uploaded keep2share

Hardcore Sex Hub 224542

Report broken links / Post a comment

You must be logged in to post a comment.



General\r\nComplete name : D:Blonde fucked in all holes. Gang BangDPRDCNlnDPRDCNln.mp4\r\nFormat : MPEG-4\r\nFormat profile : Base Media / Version 2\r\nCodec ID : mp42\r\nFile size : 985 MiB\r\nDuration : 22mn 16s\r\nOverall bit rate mode : Variable\r\nOverall bit rate : 6 186 Kbps\r\nEncoded date : UTC 2014-01-15 23:18:26\r\nTagged date : UTC 2014-01-15 23:18:26\r\n\r\nVideo\r\nID : 1\r\nFormat : AVC\r\nFormat/Info : Advanced Video Codec\r\nFormat profile : [email protected]\r\nFormat settings, CABAC : Yes\r\nFormat settings, ReFrames : 4 frames\r\nCodec ID : avc1\r\nCodec ID/Info : Advanced Video Coding\r\nDuration : 22mn 16s\r\nBit rate : 5 992 Kbps\r\nWidth : 1 920 pixels\r\nHeight : 1 080 pixels\r\nDisplay aspect ratio : 16:9\r\nFrame rate mode : Constant\r\nFrame rate : 30.000 fps\r\nColor space : YUV\r\nChroma subsampling : 4:2:0\r\nBit depth : 8 bits\r\nScan type : Progressive\r\nBits/(Pixel*Frame) : 0.096\r\nStream size : 954 MiB (97%)\r\nLanguage : English\r\nEncoded date : UTC 2014-01-15 23:18:26\r\nTagged date : UTC 2014-01-15 23:18:26\r\nColor primaries : BT.709\r\nTransfer characteristics : BT.709\r\nMatrix coefficients : BT.709\r\n\r\nAudio\r\nID : 2\r\nFormat : AAC\r\nFormat/Info : Advanced Audio Codec\r\nFormat profile : LC\r\nCodec ID : 40\r\nDuration : 22mn 16s\r\nBit rate mode : Variable\r\nBit rate : 192 Kbps\r\nMaximum bit rate : 327 Kbps\r\nChannel(s) : 2 channels\r\nChannel positions : Front: L R\r\nSampling rate : 48.0 KHz\r\nCompression mode : Lossy\r\nStream size : 30.2 MiB (3%)\r\nLanguage : English\r\nEncoded date : UTC 2014-01-15 23:18:26\r\nTagged date : UTC 2014-01-15 23:18:26\r\n\r\n