Bella Baby 2013 – Facial Double Blowjob Cumshot

Sara Luvv (Every Inch)Connie Stay by my Woman - YoungLegalPorn

Posted in HD Porn, Sex Movies, Teen, Threesome | 12522 Views |


Rate this girl !!!




1000Facials.com MyXXXPass.com Bella Baby 2013 Facial Cumshots Blowjobs Tugjobs Oral POV Group Big Tits 1080p\r\n\r\n1000Facials.com  MyXXXPass.com Bella Baby 2013 Facial Cumshots Blowjobs Tugjobs Oral POV Group Big Tits 1080p\r\n\r\n1000Facials.com  MyXXXPass.com Bella Baby 2013 Facial Cumshots Blowjobs Tugjobs Oral POV Group Big Tits 1080p 1\r\n\r\n1000Facials.com  MyXXXPass.com Bella Baby 2013 Facial Cumshots Blowjobs Tugjobs Oral POV Group Big Tits.13.10.18.bella.baby\r\n\r\n\r\nFile: 1kf.13.10.18.bella.baby.mp4\r\nSize: 1315353500 bytes (1.23 GiB), duration: 00:25:08, avg.bitrate: 6978 kb/s\r\nAudio: aac, 44100 Hz, 2 channels, s16, 150 kb/s (eng)\r\nVideo: h264, yuv420p, 1920×1080, 6818 kb/s, 29.97 fps(r) (eng)\r\n



DOWNLOAD

Keep2share.cc - Uploaded.net - Openload.co - Rapidu.net


http://ryushare.com/2904a98019e0/1kf.B3ll4.B4by.part1.rar
http://ryushare.com/29ed7e240e39/1kf.B3ll4.B4by.part2.rar
http://keep2share.cc/file/527c0c7d4b099
http://keep2share.cc/file/527c0c4a7fefd
http://turbobit.net/dkmy2odoau11.html
http://turbobit.net/erglx5850phi.html
http://ul.to/vfequa5q
http://ul.to/g6jg36wp


Premium here:
uploaded.net
keep2share.cc
rapidu.net.cc

Teens related to Bella Baby 2013 – Facial Double Blowjob Cumshot


Wow porn hd downloads 224283 ryushare uploaded keep2share

Wow porn hd downloads 224283

Xxxvideosdownload less mb ryushare uploaded keep2share

Xxxvideosdownload less mb

Teen Sex Movies Young Porn Tube Vids 225825 ryushare uploaded keep2share

Teen Sex Movies Young Porn Tube Vids 225825

The best Teen sex 224192 ryushare uploaded keep2share

The best Teen sex 224192

HD Porn Teen Sex Videos 2786 ryushare uploaded keep2share

HD Porn Teen Sex Videos 2786

Hardcore Sex Hub 1315 ryushare uploaded keep2share

Hardcore Sex Hub 1315

Young Virgin Pussy Teen Fuck Tube 2315 ryushare uploaded keep2share

Young Virgin Pussy Teen Fuck Tube 2315

hسكس ryushare uploaded keep2share

hسكس

Young legal porn clips 4613 ryushare uploaded keep2share

Young legal porn clips 4613

Watch Teen Sex Videos HD 1595 ryushare uploaded keep2share

Watch Teen Sex Videos HD 1595

Porn party teen girls 225405 ryushare uploaded keep2share

Porn party teen girls 225405

very hot pron 226721 ryushare uploaded keep2share

very hot pron 226721

pone sexy downloadfor free 226713 ryushare uploaded keep2share

pone sexy downloadfor free 226713

Small girls and boys porn 3511 ryushare uploaded keep2share

Small girls and boys porn 3511

Www Xxxsex video18 ryushare uploaded keep2share

Www Xxxsex video18

video9 in xxxsex 226754 ryushare uploaded keep2share

video9 in xxxsex 226754

hd video 1080hd pron downlod direct ryushare uploaded keep2share

hd video 1080hd pron downlod direct

College Teen Sex 5112 ryushare uploaded keep2share

College Teen Sex 5112

[AbbyWinters.com] Editors Choice – October 2012 Squirting ryushare uploaded keep2share

[AbbyWinters.com] Editors Choice – October 2012 Squirting

Teens fucked doggy style ryushare uploaded keep2share

Teens fucked doggy style

Small girls and boys porn 4473 ryushare uploaded keep2share

Small girls and boys porn 4473

HD Porn Videos 2640 ryushare uploaded keep2share

HD Porn Videos 2640

fresh teen full hd sex ryushare uploaded keep2share

fresh teen full hd sex

Small girl having hot group sex ryushare uploaded keep2share

Small girl having hot group sex

Teen porn xxx 225802 ryushare uploaded keep2share

Teen porn xxx 225802

Young XXX Tube Videos 223682 ryushare uploaded keep2share

Young XXX Tube Videos 223682

www hd sex videos in low mb 226069 ryushare uploaded keep2share

www hd sex videos in low mb 226069

Free Porn Videos Xxx Movies Pussy Porn 225004 ryushare uploaded keep2share

Free Porn Videos Xxx Movies Pussy Porn 225004

Small girls and boys porn 4062 ryushare uploaded keep2share

Small girls and boys porn 4062

Teen Sex Porn Videos Free Nude Teens 5082 ryushare uploaded keep2share

Teen Sex Porn Videos Free Nude Teens 5082

Young Sex Movies 1335 ryushare uploaded keep2share

Young Sex Movies 1335

hd 1080p xxx video pornstar 226170 ryushare uploaded keep2share

hd 1080p xxx video pornstar 226170

Hot Teen Sex 5187 ryushare uploaded keep2share

Hot Teen Sex 5187

Sandy K – first hardcore !!! ryushare uploaded keep2share

Sandy K – first hardcore !!!

Amateur Teen Sex 5266 ryushare uploaded keep2share

Amateur Teen Sex 5266

Report broken links / Post a comment

You must be logged in to post a comment.



General\r\nComplete name : H:HD TEENS PORN/DOWNLOAD/RYUSHARE/UPLOADED/KEEP2SHARE/TURBOBIT/XXX/1kf.13.10.18.bella.baby.mp4\r\nFormat : MPEG-4\r\nFormat profile : Base Media\r\nCodec ID : isom\r\nFile size : 1.23 GiB\r\nDuration : 25mn 8s\r\nOverall bit rate mode : Variable\r\nOverall bit rate : 6 976 Kbps\r\nWriting application : Lavf52.93.0\r\n\r\nVideo\r\nID : 1\r\nFormat : AVC\r\nFormat/Info : Advanced Video Codec\r\nFormat profile : [email protected]\r\nFormat settings, CABAC : Yes\r\nFormat settings, ReFrames : 4 frames\r\nCodec ID : avc1\r\nCodec ID/Info : Advanced Video Coding\r\nDuration : 25mn 8s\r\nBit rate : 6 800 Kbps\r\nWidth : 1 920 pixels\r\nHeight : 1 080 pixels\r\nDisplay aspect ratio : 16:9\r\nFrame rate mode : Constant\r\nFrame rate : 29.970 fps\r\nColor space : YUV\r\nChroma subsampling : 4:2:0\r\nBit depth : 8 bits\r\nScan type : Progressive\r\nBits/(Pixel*Frame) : 0.109\r\nStream size : 1.20 GiB (98%)\r\nWriting library : x264 core 107\r\nEncoding settings : cabac=1 / ref=3 / deblock=1:0:0 / analyse=0x3:0x113 / me=umh / subme=6 / psy=1 / psy_rd=1.00:0.00 / mixed_ref=1 / me_range=16 / chroma_me=1 / trellis=0 / 8x8dct=1 / cqm=0 / deadzone=21,11 / fast_pskip=1 / chroma_qp_offset=-2 / threads=1 / sliced_threads=0 / nr=0 / decimate=1 / interlaced=0 / constrained_intra=0 / bframes=2 / b_pyramid=2 / b_adapt=2 / b_bias=0 / direct=2 / weightb=1 / open_gop=0 / weightp=0 / keyint=30 / keyint_min=16 / scenecut=0 / intra_refresh=0 / rc_lookahead=30 / rc=abr / mbtree=1 / bitrate=6800 / ratetol=1.0 / qcomp=0.60 / qpmin=1 / qpmax=31 / qpstep=4 / ip_ratio=1.41 / aq=1:1.00\r\nLanguage : English\r\n\r\nAudio\r\nID : 2\r\nFormat : AAC\r\nFormat/Info : Advanced Audio Codec\r\nFormat profile : LC\r\nCodec ID : 40\r\nDuration : 25mn 8s\r\nBit rate mode : Variable\r\nBit rate : 150 Kbps\r\nChannel(s) : 2 channels\r\nChannel positions : Front: L R\r\nSampling rate : 44.1 KHz\r\nCompression mode : Lossy\r\nDelay relative to video : 67ms\r\nStream size : 27.1 MiB (2%)\r\nLanguage : English\r\n\r\n