Babes.com Nataly Gold, Silvia Lauren – A guiding hand

Nubiles.net Olivia Devine – Outdoor OrgasmBabes.com Linda Sweet, Susan Ayn, Victoria Daniels

Posted in HD Porn, Sex Movies, Teen, Threesome | 11685 Views |


Rate this girl !!!




cover\r\n\r\n1920x1080p / MP4 / 1.63 GB\r\n

[Babes.com] Nataly Gold, Silvia Lauren – A guiding hand

\r\nSCREENSHOTS:\r\n\r\nscreens



DOWNLOAD

Keep2share.cc - Uploaded.net - Openload.co - Rapidu.net


http://played.to/ko8qal16yky2

http://ul.to/x2u8b34t/b4b3s.bgg.n4t4ly.sz1lv14.f4o72114.1o8op.6ooo.mp4



Premium here:
uploaded.net
keep2share.cc
rapidu.net.cc


Teens related to Babes.com Nataly Gold, Silvia Lauren – A guiding hand


Girls sex art hd teens videos 5549 ryushare uploaded keep2share

Girls sex art hd teens videos 5549

Girls sex art hd teens videos 224551 ryushare uploaded keep2share

Girls sex art hd teens videos 224551

18 year girl xxxx downlode ryushare uploaded keep2share

18 year girl xxxx downlode

Teen Porn XXX Tube 225857 ryushare uploaded keep2share

Teen Porn XXX Tube 225857

faapy sexyi x bideos hd 226060 ryushare uploaded keep2share

faapy sexyi x bideos hd 226060

HD Sex World Videos High Definition Free Porn 225327 ryushare uploaded keep2share

HD Sex World Videos High Definition Free Porn 225327

Teen porn movies 3825 ryushare uploaded keep2share

Teen porn movies 3825

Teen Sex Porn Videos Free Nude Teens 225569 ryushare uploaded keep2share

Teen Sex Porn Videos Free Nude Teens 225569

farst taim sex downlod ryushare uploaded keep2share

farst taim sex downlod

Klixen, Cindy Hope and Cipriana – Three teasing tongues 2 ryushare uploaded keep2share

Klixen, Cindy Hope and Cipriana – Three teasing tongues 2

K Craving Lips 3 – B ryushare uploaded keep2share

K Craving Lips 3 – B

xxx com full pc Hd video 720p ryushare uploaded keep2share

xxx com full pc Hd video 720p

Alexis Brill A Dose Of Pantyhose ryushare uploaded keep2share

Alexis Brill A Dose Of Pantyhose

hd hq xxx porn videos dawonlod 226399 ryushare uploaded keep2share

hd hq xxx porn videos dawonlod 226399

Good Teen Tube Sexy Young Naked Girls Movies 225493 ryushare uploaded keep2share

Good Teen Tube Sexy Young Naked Girls Movies 225493

HD Porn Video 3620 ryushare uploaded keep2share

HD Porn Video 3620

XXX young porn sex 3841 ryushare uploaded keep2share

XXX young porn sex 3841

Uploaded net porn XXX 225809 ryushare uploaded keep2share

Uploaded net porn XXX 225809

Teen Sex Porn Videos Free Nude Teens 3009 ryushare uploaded keep2share

Teen Sex Porn Videos Free Nude Teens 3009

xxx sexy moovi pchd download ryushare uploaded keep2share

xxx sexy moovi pchd download

pornosexxx hd 226414 ryushare uploaded keep2share

pornosexxx hd 226414

pinkworld anal porn videos download mp4 ryushare uploaded keep2share

pinkworld anal porn videos download mp4

Young teens tube hot girls free porn video 4952 ryushare uploaded keep2share

Young teens tube hot girls free porn video 4952

WoodmanCastingX Viola Bailey Hard mega co nz/|depositfiles com/files|uploaded to|ul to/ 226656 ryushare uploaded keep2share

WoodmanCastingX Viola Bailey Hard mega co nz/|depositfiles com/files|uploaded to|ul to/ 226656

TrickyMasseur.com Joanna ryushare uploaded keep2share

TrickyMasseur.com Joanna

HD Teens Sex Tube Videos XxX 223808 ryushare uploaded keep2share

HD Teens Sex Tube Videos XxX 223808

teen xxx video hd dowalona ryushare uploaded keep2share

teen xxx video hd dowalona

Amarna  – PublicAgent ryushare uploaded keep2share

Amarna – PublicAgent

Fresh Teen Videos 225576 ryushare uploaded keep2share

Fresh Teen Videos 225576

bf 1080p xxxx sex xxx hd bf 226698 ryushare uploaded keep2share

bf 1080p xxxx sex xxx hd bf 226698

girls fucking sexy video Higley compressed ryushare uploaded keep2share

girls fucking sexy video Higley compressed

Teen porn movies 225211 ryushare uploaded keep2share

Teen porn movies 225211

Chelsea – First & Forever ryushare uploaded keep2share

Chelsea – First & Forever

Hardcore Sex Hub 1315 ryushare uploaded keep2share

Hardcore Sex Hub 1315

Teen Sex Movies Young Porn Tube Vids 225825 ryushare uploaded keep2share

Teen Sex Movies Young Porn Tube Vids 225825

Report broken links / Post a comment

You must be logged in to post a comment.



[Babes.com] Nataly Gold, Silvia Lauren – A guiding hand \r\n\r\nGeneral\r\nComplete name : J:HD Teens Movies Young Downloads Online Clips Scenes [Babes.com] Nataly Gold, Silvia Lauren – A guiding hand .1o8op.6ooo.mp4\r\nFormat : MPEG-4\r\nFormat profile : Base Media\r\nCodec ID : isom\r\nFile size : 1.63 GiB\r\nDuration : 36mn 20s\r\nOverall bit rate : 6 402 Kbps\r\nWriting application : Lavf55.33.100\r\n\r\nVideo\r\nID : 1\r\nFormat : AVC\r\nFormat/Info : Advanced Video Codec\r\nFormat profile : [email protected]\r\nFormat settings, CABAC : Yes\r\nFormat settings, ReFrames : 5 frames\r\nCodec ID : avc1\r\nCodec ID/Info : Advanced Video Coding\r\nDuration : 36mn 20s\r\nBit rate : 6 000 Kbps\r\nWidth : 1 920 pixels\r\nHeight : 1 080 pixels\r\nDisplay aspect ratio : 16:9\r\nFrame rate mode : Constant\r\nFrame rate : 23.976 fps\r\nColor space : YUV\r\nChroma subsampling : 4:2:0\r\nBit depth : 8 bits\r\nScan type : Progressive\r\nBits/(Pixel*Frame) : 0.121\r\nStream size : 1.53 GiB (94%)\r\nWriting library : x264 core 142 r2389 956c8d8\r\nEncoding settings : cabac=1 / ref=5 / deblock=1:0:0 / analyse=0x3:0x113 / me=umh / subme=8 / psy=1 / psy_rd=1.00:0.00 / mixed_ref=1 / me_range=16 / chroma_me=1 / trellis=1 / 8x8dct=1 / cqm=0 / deadzone=21,11 / fast_pskip=1 / chroma_qp_offset=-2 / threads=6 / lookahead_threads=1 / sliced_threads=0 / nr=0 / decimate=1 / interlaced=0 / bluray_compat=0 / constrained_intra=0 / bframes=3 / b_pyramid=2 / b_adapt=2 / b_bias=0 / direct=3 / weightb=1 / open_gop=0 / weightp=2 / keyint=60 / keyint_min=6 / scenecut=40 / intra_refresh=0 / rc_lookahead=50 / rc=abr / mbtree=1 / bitrate=6000 / ratetol=1.0 / qcomp=0.60 / qpmin=0 / qpmax=69 / qpstep=4 / ip_ratio=1.40 / aq=1:1.00\r\nTagged date : UTC 2014-10-09 05:18:07\r\n\r\nAudio\r\nID : 2\r\nFormat : AAC\r\nFormat/Info : Advanced Audio Codec\r\nFormat profile : LC\r\nCodec ID : 40\r\nDuration : 36mn 20s\r\nDuration_LastFrame : -9ms\r\nBit rate mode : Constant\r\nBit rate : 128 Kbps\r\nChannel count : 2 channels\r\nChannel positions : Front: L R\r\nSampling rate : 48.0 KHz\r\nCompression mode : Lossy\r\nStream size : 33.3 MiB (2%)\r\nTagged date : UTC 2014-10-09 05:18:07\r\n\r\n