Angela & Lindsey A Threesome Date

Tight Snatch Hunter - [WowGirls.com]Pretty skinny girl in casting video

Posted in HD Porn, Sex Movies, Teen, Threesome | 27687 Views |


Rate this girl !!!




Angela & Lindsey A Threesome Date\r\n\r\npic\r\n

YoungLegalPorn - A Threesome Date

\r\nProduction year: 2012\r\nSubsite and site: YoungLegalPorn.com\r\nGenre: All sex, 3Some, Teens, Anal, Blowjob, Brunette, Cum On Face, FFM, Hardcore, Outdoors, Shaved Pussy, Small Tits\r\nDuration: 00:27:50\r\nType HD video: 720p\r\nVideo Quality: SiteRip\r\nVideo Format: MP4\r\nVideo codec: H.264/AVC\r\nAudio codec: AAC\r\nVideo: MPEG4 Video (H264) 1280×720 29.97fps [VideoHandler]\r\nAudio: AAC 44100Hz stereo [SoundHandler]\r\n\r\nhttp://i29.fastpic.ru/big/2012/0301/d4/a378d16b59d12e5044aa23301d911dd4.jpg



DOWNLOAD

Keep2share.cc - Uploaded.net - Openload.co - Rapidu.net


http://keep2share.cc/file/52e6fe466a736
http://ryushare.com/ht9ozbdgqo09/ylp.thr3s0m3.rar
http://ul.to/db9d2xlo


Premium here:
uploaded.net
keep2share.cc
rapidu.net.cc

Teens related to Angela & Lindsey A Threesome Date


HQ Sex Movies Download 1864 ryushare uploaded keep2share

HQ Sex Movies Download 1864

Free Porn Videos Xxx Movies Pussy Porn 3183 ryushare uploaded keep2share

Free Porn Videos Xxx Movies Pussy Porn 3183

Sweet Teen Porn – Young Porn Videos 3794 ryushare uploaded keep2share

Sweet Teen Porn – Young Porn Videos 3794

Sweet Teen Porn – Young Porn Videos 3539 ryushare uploaded keep2share

Sweet Teen Porn – Young Porn Videos 3539

hardcore sex hd download 226587 ryushare uploaded keep2share

hardcore sex hd download 226587

High Definition Movies on HD Teen Porn XXX Tube 1493 ryushare uploaded keep2share

High Definition Movies on HD Teen Porn XXX Tube 1493

sex xxx bf england ryushare uploaded keep2share

sex xxx bf england

Young xxx 224554 ryushare uploaded keep2share

Young xxx 224554

edge orgasm ryushare uploaded keep2share

edge orgasm

Young Virgin Pussy Teen Fuck Tube 224676 ryushare uploaded keep2share

Young Virgin Pussy Teen Fuck Tube 224676

yes-xxx-teen-sex-movies ryushare uploaded keep2share

yes-xxx-teen-sex-movies

HD Teen Sex Tube 1451 ryushare uploaded keep2share

HD Teen Sex Tube 1451

www video9 in 226088 ryushare uploaded keep2share

www video9 in 226088

Teen Sex Movies Young Porn Tube Vids 224610 ryushare uploaded keep2share

Teen Sex Movies Young Porn Tube Vids 224610

Jenny Simons – At The Right Time ryushare uploaded keep2share

Jenny Simons – At The Right Time

Young 720p hd porn 3634 ryushare uploaded keep2share

Young 720p hd porn 3634

HD sex movies downloads 2947 ryushare uploaded keep2share

HD sex movies downloads 2947

Young xxx 225572 ryushare uploaded keep2share

Young xxx 225572

world hd sex clips 226188 ryushare uploaded keep2share

world hd sex clips 226188

Wow Porn Movies download) 5319 ryushare uploaded keep2share

Wow Porn Movies download) 5319

hd full vergin sex video download ryushare uploaded keep2share

hd full vergin sex video download

Hot Teen Sex 224500 ryushare uploaded keep2share

Hot Teen Sex 224500

HQ Sex Movies Download 4182 ryushare uploaded keep2share

HQ Sex Movies Download 4182

xxxhqvideo dld ryushare uploaded keep2share

xxxhqvideo dld

SexArt.com Ivana Sugar & Vanda Lust – Rain ryushare uploaded keep2share

SexArt.com Ivana Sugar & Vanda Lust – Rain

Nude Teens fucking hard 224248 ryushare uploaded keep2share

Nude Teens fucking hard 224248

Tube xxx 223693 ryushare uploaded keep2share

Tube xxx 223693

Teens in Porno young porn videos and free teen sex 225522 ryushare uploaded keep2share

Teens in Porno young porn videos and free teen sex 225522

My bigtits girlfriend fornication – in the sack ryushare uploaded keep2share

My bigtits girlfriend fornication – in the sack

HQ Sex Movies Download 224642 ryushare uploaded keep2share

HQ Sex Movies Download 224642

xxx hd art videos download 226012 ryushare uploaded keep2share

xxx hd art videos download 226012

Teen xxx sex hd 224369 ryushare uploaded keep2share

Teen xxx sex hd 224369

Teen Sex Porn Videos Free Nude Teens 5082 ryushare uploaded keep2share

Teen Sex Porn Videos Free Nude Teens 5082

xxx photos HD MP4/ ryushare uploaded keep2share

xxx photos HD MP4/

Hd young videos 1610 ryushare uploaded keep2share

Hd young videos 1610

Report broken links / Post a comment

You must be logged in to post a comment.



General\r\nComplete name : D:YoungLegalPorn - A Threesome Date.mp4\r\nFormat : MPEG-4\r\nFormat profile : Base Media\r\nCodec ID : isom\r\nFile size : 923 MiB\r\nDuration : 27mn 50s\r\nOverall bit rate mode : Variable\r\nOverall bit rate : 4 637 Kbps\r\nWriting application : Lavf52.64.2\r\n\r\nVideo\r\nID : 1\r\nFormat : AVC\r\nFormat/Info : Advanced Video Codec\r\nFormat profile : [email protected]\r\nFormat settings, CABAC : Yes\r\nFormat settings, ReFrames : 2 frames\r\nCodec ID : avc1\r\nCodec ID/Info : Advanced Video Coding\r\nDuration : 27mn 50s\r\nBit rate : 4 479 Kbps\r\nWidth : 1 280 pixels\r\nHeight : 720 pixels\r\nDisplay aspect ratio : 16:9\r\nFrame rate mode : Constant\r\nFrame rate : 29.970 fps\r\nColor space : YUV\r\nChroma subsampling : 4:2:0\r\nBit depth : 8 bits\r\nScan type : Progressive\r\nBits/(Pixel*Frame) : 0.162\r\nStream size : 892 MiB (97%)\r\nWriting library : x264 core 107\r\nEncoding settings : cabac=1 / ref=2 / deblock=1:0:0 / analyse=0x3:0x113 / me=hex / subme=6 / psy=1 / psy_rd=1.00:0.00 / mixed_ref=0 / me_range=16 / chroma_me=1 / trellis=0 / 8x8dct=1 / cqm=0 / deadzone=21,11 / fast_pskip=1 / chroma_qp_offset=-2 / threads=36 / sliced_threads=0 / nr=0 / decimate=1 / interlaced=0 / constrained_intra=0 / bframes=3 / b_pyramid=0 / b_adapt=1 / b_bias=0 / direct=3 / weightb=1 / open_gop=0 / weightp=2 / keyint=250 / keyint_min=25 / scenecut=40 / intra_refresh=0 / rc_lookahead=40 / rc=crf / mbtree=1 / crf=20.0 / qcomp=0.60 / qpmin=10 / qpmax=51 / qpstep=4 / ip_ratio=1.41 / aq=1:1.00\r\n\r\nAudio\r\nID : 2\r\nFormat : AAC\r\nFormat/Info : Advanced Audio Codec\r\nFormat profile : LC\r\nCodec ID : 40\r\nDuration : 27mn 50s\r\nBit rate mode : Variable\r\nBit rate : 152 Kbps\r\nChannel(s) : 2 channels\r\nChannel positions : Front: L R\r\nSampling rate : 44.1 KHz\r\nCompression mode : Lossy\r\nStream size : 30.3 MiB (3%)\r\n\r\n