Amarna Miller & Juan Lucho – Que Es La Pasion

Taissia A – Bed of RosesTaissia Shanti – Hot and Steamy

Posted in Amateur, HD Porn, Sex Movies, Teen | 8197 Views |


Rate this girl !!!




[SexArt.com] Amarna Miller & Juan Lucho – Que Es La Pasion

\r\n

cover

\r\n

1920x1080p / MP4 / 1.11 GB

\r\n

SCREENSHOTS:

\r\n

screens



DOWNLOAD

Keep2share.cc - Uploaded.net - Openload.co - Rapidu.net


http://ul.to/5nwewzqw/s4rt.14.08.24.4m4rn4.m1ll3r.qv3.3s.l4.p4s10n.mp4
http://fileom.com/a6crbnz5n1ok/s4rt.14.08.24.4m4rn4.m1ll3r.qv3.3s.l4.p4s10n.mp4.html
http://k2s.cc/file/b369b930d0a50/s4rt.14.08.24.4m4rn4.m1ll3r.qv3.3s.l4.p4s10n.mp4


Premium here:
uploaded.net
keep2share.cc
rapidu.net.cc


Teens related to Amarna Miller & Juan Lucho – Que Es La Pasion


Teens in Porno young porn videos and free teen sex 224928 ryushare uploaded keep2share

Teens in Porno young porn videos and free teen sex 224928

fucking pix hd download ryushare uploaded keep2share

fucking pix hd download

xxx hd smoll garls video com ryushare uploaded keep2share

xxx hd smoll garls video com

Big Birthday Party Fuck in Ibiza ryushare uploaded keep2share

Big Birthday Party Fuck in Ibiza

hi sex movies download in hq 226295 ryushare uploaded keep2share

hi sex movies download in hq 226295

8 Teen XXX – Teen Sex 2780 ryushare uploaded keep2share

8 Teen XXX – Teen Sex 2780

Linda S – Making Up For Lost Time ryushare uploaded keep2share

Linda S – Making Up For Lost Time

Teenies Videos – Teen Porn, Teen Sex, XXX Free Videos 2114 ryushare uploaded keep2share

Teenies Videos – Teen Porn, Teen Sex, XXX Free Videos 2114

X-art Scarlet Jayden Blindfold me part2 ryushare uploaded keep2share

X-art Scarlet Jayden Blindfold me part2

Free Porn Videos Xxx Movies Pussy Porn 85 ryushare uploaded keep2share

Free Porn Videos Xxx Movies Pussy Porn 85

sex wwwxxx xcxx ryushare uploaded keep2share

sex wwwxxx xcxx

Babes.com Nataly Gold, Silvia Lauren – A guiding hand ryushare uploaded keep2share

Babes.com Nataly Gold, Silvia Lauren – A guiding hand

Alyona, Klara & Paloma – Strap-on Adventure ryushare uploaded keep2share

Alyona, Klara & Paloma – Strap-on Adventure

xxx 18porn sex ryushare uploaded keep2share

xxx 18porn sex

Nude Teens fucking hard 1617 ryushare uploaded keep2share

Nude Teens fucking hard 1617

Young Sex Movies 1335 ryushare uploaded keep2share

Young Sex Movies 1335

Movies Young legal porn 224316 ryushare uploaded keep2share

Movies Young legal porn 224316

BRAZZERS sex hd videos download ryushare uploaded keep2share

BRAZZERS sex hd videos download

Free Teen Porn Videos at Teen Sex Tube XXX 3711 ryushare uploaded keep2share

Free Teen Porn Videos at Teen Sex Tube XXX 3711

Watch Teen Sex Videos HD 1207 ryushare uploaded keep2share

Watch Teen Sex Videos HD 1207

Porn teen hd downloads 224873 ryushare uploaded keep2share

Porn teen hd downloads 224873

Uploaded net porn XXX 224345 ryushare uploaded keep2share

Uploaded net porn XXX 224345

xxx video sex porno 226546 ryushare uploaded keep2share

xxx video sex porno 226546

8 Teen XXX – Teen Sex 224953 ryushare uploaded keep2share

8 Teen XXX – Teen Sex 224953

Teenies Videos – Teen Porn, Teen Sex, XXX Free Videos 4372 ryushare uploaded keep2share

Teenies Videos – Teen Porn, Teen Sex, XXX Free Videos 4372

Teen porn movies 224453 ryushare uploaded keep2share

Teen porn movies 224453

First time Sexual Films 18 sex xxx 2336 ryushare uploaded keep2share

First time Sexual Films 18 sex xxx 2336

Young Sex Movies 5695 ryushare uploaded keep2share

Young Sex Movies 5695

Tube xxx 223900 ryushare uploaded keep2share

Tube xxx 223900

GirlsDoPorn E230 18 Years Old ryushare uploaded keep2share

GirlsDoPorn E230 18 Years Old

Teenies Videos – Teen Porn, Teen Sex, XXX Free Videos 224066 ryushare uploaded keep2share

Teenies Videos – Teen Porn, Teen Sex, XXX Free Videos 224066

High Definition Movies on HD Teen Porn XXX Tube 224233 ryushare uploaded keep2share

High Definition Movies on HD Teen Porn XXX Tube 224233

K Craving Lips 4 – CLIP B ryushare uploaded keep2share

K Craving Lips 4 – CLIP B

Taissia Shanti – Hot and Steamy ryushare uploaded keep2share

Taissia Shanti – Hot and Steamy

HQ Sex Movies Download 224196 ryushare uploaded keep2share

HQ Sex Movies Download 224196

Report broken links / Post a comment

You must be logged in to post a comment.



General\r\nComplete name : D:[SexArt.com] Amarna Miller & Juan Lucho – Que Es La Pasion.mp4\r\nFormat : MPEG-4\r\nFormat profile : Base Media\r\nCodec ID : isom\r\nFile size : 1.11 GiB\r\nDuration : 19mn 30s\r\nOverall bit rate : 8 121 Kbps\r\nMovie name : RARBG.COM - SexArt.14.08.24.Amarna.Miller.Que.Es.La.Pasion.XXX.1080p.MP4-KTR\r\nWriting application : Lavf55.48.100\r\nComment : RARBG.COM - SexArt.14.08.24.Amarna.Miller.Que.Es.La.Pasion.XXX.1080p.MP4-KTR\r\n\r\nVideo\r\nID : 1\r\nFormat : AVC\r\nFormat/Info : Advanced Video Codec\r\nFormat profile : [email protected]\r\nFormat settings, CABAC : Yes\r\nFormat settings, ReFrames : 5 frames\r\nCodec ID : avc1\r\nCodec ID/Info : Advanced Video Coding\r\nDuration : 19mn 30s\r\nBit rate : 8 000 Kbps\r\nWidth : 1 920 pixels\r\nHeight : 1 080 pixels\r\nDisplay aspect ratio : 16:9\r\nFrame rate mode : Constant\r\nFrame rate : 23.976 fps\r\nColor space : YUV\r\nChroma subsampling : 4:2:0\r\nBit depth : 8 bits\r\nScan type : Progressive\r\nBits/(Pixel*Frame) : 0.161\r\nStream size : 1.09 GiB (98%)\r\nWriting library : x264 core 129 r2245 bc13772\r\nEncoding settings : cabac=1 / ref=5 / deblock=1:0:0 / analyse=0x3:0x113 / me=umh / subme=8 / psy=0 / mixed_ref=1 / me_range=16 / chroma_me=1 / trellis=1 / 8x8dct=1 / cqm=0 / deadzone=21,11 / fast_pskip=1 / chroma_qp_offset=0 / threads=36 / lookahead_threads=6 / sliced_threads=0 / nr=0 / decimate=1 / interlaced=0 / bluray_compat=0 / constrained_intra=0 / bframes=3 / b_pyramid=2 / b_adapt=2 / b_bias=0 / direct=3 / weightb=1 / open_gop=0 / weightp=2 / keyint=250 / keyint_min=25 / scenecut=40 / intra_refresh=0 / rc=2pass / mbtree=0 / bitrate=8000 / ratetol=1.0 / qcomp=0.60 / qpmin=10 / qpmax=51 / qpstep=4 / cplxblur=20.0 / qblur=0.5 / ip_ratio=1.40 / pb_ratio=1.30 / aq=1:1.00\r\nLanguage : English\r\n\r\nAudio\r\nID : 2\r\nFormat : AAC\r\nFormat/Info : Advanced Audio Codec\r\nFormat profile : LC\r\nCodec ID : 40\r\nDuration : 19mn 30s\r\nBit rate mode : Constant\r\nBit rate : 121 Kbps\r\nChannel(s) : 2 channels\r\nChannel positions : Front: L R\r\nSampling rate : 44.1 KHz\r\nCompression mode : Lossy\r\nStream size : 16.9 MiB (1%)\r\nLanguage : English\r\n\r\n