Alyona, Klara & Paloma – Strap-on Adventure

Kail - My Favorite CountryLola Taylor - Hardcore

Posted in HD Porn, Lesbian, Pornstar, Sex Movies, Teen, Threesome | 16140 Views |


Rate this girl !!!




pic\r\n\r\n \r\n\r\nDuration: 00:16:42 \r\n Type HD video: 1080p\r\n Video Format: WMV\r\n Video codec: Windows Media\r\n Audio Codec: WMA\r\n Video: VC-1 (WMV3), 12.2 Mbps, 29.970 fps\r\n Audio: WMA (WMA2), 192 Kbps, 44.1 KHz\r\n\r\n \r\n\r\npic\r\n\r\nhttp://hiocean1.pl/porn/uploads/2013/12/55462e16b6b47b18c612439f807df657.jpg\r\n\r\nhttp://hiocean1.pl/porn/uploads/2013/12/34ebc71c086933322542bd895a27e1ec.jpg



DOWNLOAD

Keep2share.cc - Uploaded.net - Openload.co - Rapidu.net


http://fileom.com/ia478lchhit2/4lyon4.Kl4r4.P4lom4.Str4pon.4dventure.wmv.html
http://ul.to/i4y2xhsj/4lyon4.Kl4r4.P4lom4.Str4pon.4dventure.wmv
http://k2s.cc/file/55ccf2bbb7289/4lyon4.Kl4r4.P4lom4.Str4pon.4dventure.wmv
http://ul.to/pu94822o



Premium here:
uploaded.net
keep2share.cc
rapidu.net.cc

Teens related to Alyona, Klara & Paloma – Strap-on Adventure


I Love Young Girls 3 ryushare uploaded keep2share

I Love Young Girls 3

Free High Quality Sex Movies 2128 ryushare uploaded keep2share

Free High Quality Sex Movies 2128

Teen Porn XXX Tube 224909 ryushare uploaded keep2share

Teen Porn XXX Tube 224909

PornstarPlatinum.com / JoslynJames.xxx] Joslyn James ryushare uploaded keep2share

PornstarPlatinum.com / JoslynJames.xxx] Joslyn James

HD Teens Sex Tube Videos XxX 225345 ryushare uploaded keep2share

HD Teens Sex Tube Videos XxX 225345

www 8teenSex Hd com/Downlod 226520 ryushare uploaded keep2share

www 8teenSex Hd com/Downlod 226520

Movies Young legal porn 5242 ryushare uploaded keep2share

Movies Young legal porn 5242

8 Teen XXX – Teen Sex 4220 ryushare uploaded keep2share

8 Teen XXX – Teen Sex 4220

Chelsea – First & Forever ryushare uploaded keep2share

Chelsea – First & Forever

Teen Porn XXX Tube 1470 ryushare uploaded keep2share

Teen Porn XXX Tube 1470

new fuck photo hd download ryushare uploaded keep2share

new fuck photo hd download

Hot Teen Sex HD videos 225101 ryushare uploaded keep2share

Hot Teen Sex HD videos 225101

HD Teen Sex Tube 5118 ryushare uploaded keep2share

HD Teen Sex Tube 5118

Nude Teens fucking hard 3040 ryushare uploaded keep2share

Nude Teens fucking hard 3040

High Definition Movies on HD 224782 ryushare uploaded keep2share

High Definition Movies on HD 224782

Hot Teen Sex 2747 ryushare uploaded keep2share

Hot Teen Sex 2747

Much Need Vacation X-Art ryushare uploaded keep2share

Much Need Vacation X-Art

pornosexxx hd 226414 ryushare uploaded keep2share

pornosexxx hd 226414

sex short clips in high quality ryushare uploaded keep2share

sex short clips in high quality

8 Teen XXX – Teen Sex 2973 ryushare uploaded keep2share

8 Teen XXX – Teen Sex 2973

Uploaded net porn XXX 225827 ryushare uploaded keep2share

Uploaded net porn XXX 225827

Wowporn Barbara Sweet & Beata HD ryushare uploaded keep2share

Wowporn Barbara Sweet & Beata HD

xxxxsexvideo 226647 ryushare uploaded keep2share

xxxxsexvideo 226647

Teen porn movies 4620 ryushare uploaded keep2share

Teen porn movies 4620

Hd quality – Teen sex video 1299 ryushare uploaded keep2share

Hd quality – Teen sex video 1299

Alexis Brill – WUNF 101 ryushare uploaded keep2share

Alexis Brill – WUNF 101

baby hd mp4 deflortioan sex 226670 ryushare uploaded keep2share

baby hd mp4 deflortioan sex 226670

Teen porn movies 3006 ryushare uploaded keep2share

Teen porn movies 3006

21Natural hd teen free ryushare uploaded keep2share

21Natural hd teen free

xxx sex h d 16 yars videos free downlod 226333 ryushare uploaded keep2share

xxx sex h d 16 yars videos free downlod 226333

Daisy, Karin ryushare uploaded keep2share

Daisy, Karin

pc full hd video xxx download ryushare uploaded keep2share

pc full hd video xxx download

Jassie Gold – Hardcore Fucking ryushare uploaded keep2share

Jassie Gold – Hardcore Fucking

Tanned Fucking for money in the street ryushare uploaded keep2share

Tanned Fucking for money in the street

Jessie Volt (K POV) B ryushare uploaded keep2share

Jessie Volt (K POV) B

Report broken links / Post a comment

You must be logged in to post a comment.



Alyona, Klara & Paloma - Strap-on Adventure\r\nGeneral\r\nComplete name : D:Alyona, Klara & Paloma - Strap-on Adventure.wmv\r\nFormat : Windows Media\r\nFile size : 1.45 GiB\r\nDuration : 16mn 42s\r\nOverall bit rate mode : Variable\r\nOverall bit rate : 12.4 Mbps\r\nMaximum Overall bit rate : 18.7 Mbps\r\nEncoded date : UTC 2012-07-26 01:04:14.570\r\nSfOriginalFPS : 299700\r\n\r\nVideo\r\nID : 2\r\nFormat : VC-1\r\nFormat profile : [email protected]\r\nCodec ID : WMV3\r\nCodec ID/Info : Windows Media Video 9\r\nCodec ID/Hint : WMV3\r\nDescription of the codec : Windows Media Video 9 - Professional\r\nDuration : 16mn 42s\r\nBit rate mode : Variable\r\nBit rate : 12.2 Mbps\r\nWidth : 1 920 pixels\r\nHeight : 1 080 pixels\r\nDisplay aspect ratio : 16:9\r\nFrame rate : 29.970 fps\r\nColor space : YUV\r\nChroma subsampling : 4:2:0\r\nBit depth : 8 bits\r\nScan type : Progressive\r\nCompression mode : Lossy\r\nBits/(Pixel*Frame) : 0.196\r\nStream size : 1.42 GiB (98%)\r\nLanguage : Russian\r\n\r\nAudio\r\nID : 1\r\nFormat : WMA\r\nFormat version : Version 2\r\nCodec ID : 161\r\nCodec ID/Info : Windows Media Audio\r\nDescription of the codec : Windows Media Audio 9.2 - 192 kbps, 44 kHz, stereo (A/V) 1-pass CBR\r\nDuration : 16mn 42s\r\nBit rate mode : Constant\r\nBit rate : 192 Kbps\r\nChannel count : 2 channels\r\nSampling rate : 44.1 KHz\r\nBit depth : 16 bits\r\nStream size : 23.0 MiB (2%)\r\nLanguage : Russian\r\n\r\n