Adult Hardcore XXX Sex Videos 1705

High Definition Movies on HD Teen Porn XXX Tube 1708HD Porn Video 1701

Posted in HD Porn, Pornstar, Sex Movies, Teen | 28823 Views |


Rate this girl !!!




\r\n\r\nhttp://img20.imagetwist.com/i/05264/07fm6myz8od0.jpeg\r\n\r\n Link(816 Mb||32:31||1920*1080||MP4)



DOWNLOAD

Keep2share.cc - Uploaded.net - Openload.co - Rapidu.net


http://keep2share.cc/file/a802f88b72ebe
http://ryushare.com/01v9u244ejws/THRPNBty.rar
http://ul.to/r6mkeduv


Premium here:
uploaded.net
keep2share.cc
rapidu.net.cc


Teens related to Adult Hardcore XXX Sex Videos 1705


Porn massage young brunette ryushare uploaded keep2share

Porn massage young brunette

hd 1taem xxx video ryushare uploaded keep2share

hd 1taem xxx video

K Three Teasing Tongues 5 – A ryushare uploaded keep2share

K Three Teasing Tongues 5 – A

Movies Young legal porn 5205 ryushare uploaded keep2share

Movies Young legal porn 5205

HD Porn Video 1455 ryushare uploaded keep2share

HD Porn Video 1455

Amateur Teen Sex 4995 ryushare uploaded keep2share

Amateur Teen Sex 4995

Porn teen hd downloads 224098 ryushare uploaded keep2share

Porn teen hd downloads 224098

Free Porn Videos Xxx Movies Pussy Porn 5225 ryushare uploaded keep2share

Free Porn Videos Xxx Movies Pussy Porn 5225

yunga grls porn sex com ryushare uploaded keep2share

yunga grls porn sex com

Free Teen Porn Videos at Teen Sex Tube XXX 224751 ryushare uploaded keep2share

Free Teen Porn Videos at Teen Sex Tube XXX 224751

www xxxx video donlood hd 226672 ryushare uploaded keep2share

www xxxx video donlood hd 226672

Tube Young Sex 2186 ryushare uploaded keep2share

Tube Young Sex 2186

High Definition Movies on HD Teen Porn XXX Tube 1229 ryushare uploaded keep2share

High Definition Movies on HD Teen Porn XXX Tube 1229

Adult Hardcore XXX Sex Videos 5564 ryushare uploaded keep2share

Adult Hardcore XXX Sex Videos 5564

Teenage Fuck Clips 225321 ryushare uploaded keep2share

Teenage Fuck Clips 225321

Hd young videos 224038 ryushare uploaded keep2share

Hd young videos 224038

xxx hd virgin video downloed com 226500 ryushare uploaded keep2share

xxx hd virgin video downloed com 226500

www youngxxx videos com 226140 ryushare uploaded keep2share

www youngxxx videos com 226140

vargin fuck Hd video dwonlod ryushare uploaded keep2share

vargin fuck Hd video dwonlod

Big Birthday Party Fuck in Ibiza ryushare uploaded keep2share

Big Birthday Party Fuck in Ibiza

Hd young videos Student Amateur Jimslip 4764 ryushare uploaded keep2share

Hd young videos Student Amateur Jimslip 4764

Young teens tube hot girls free porn video 2523 ryushare uploaded keep2share

Young teens tube hot girls free porn video 2523

[JulesJordan.com] Karmen Karma (Karmen Karma’s Wet Ass Devours A Cock / 03.02.2016) [2016 г., Anal, Big Butts, Big Tits, Blowjobs, Brunettes, Facial, Tattoo, 720p] ryushare uploaded keep2share

[JulesJordan.com] Karmen Karma (Karmen Karma’s Wet Ass Devours A Cock / 03.02.2016) [2016 г., Anal, Big Butts, Big Tits, Blowjobs, Brunettes, Facial, Tattoo, 720p]

CastingCouch X Jayden Full HD ryushare uploaded keep2share

CastingCouch X Jayden Full HD

Hd quality – Teen sex video 4204 ryushare uploaded keep2share

Hd quality – Teen sex video 4204

College Teen Sex 1987 ryushare uploaded keep2share

College Teen Sex 1987

Small girls and boys porn 3511 ryushare uploaded keep2share

Small girls and boys porn 3511

Katy Rose & Lutro – Lubricous ryushare uploaded keep2share

Katy Rose & Lutro – Lubricous

Hd quality – Teen sex video 223701 ryushare uploaded keep2share

Hd quality – Teen sex video 223701

Teen Tits Tube, Young Girls Porn Videos 1565 ryushare uploaded keep2share

Teen Tits Tube, Young Girls Porn Videos 1565

Amateur Teen Sex 224251 ryushare uploaded keep2share

Amateur Teen Sex 224251

www foto 8 teenxxx 226674 ryushare uploaded keep2share

www foto 8 teenxxx 226674

Hd quality – Teen sex video 2175 ryushare uploaded keep2share

Hd quality – Teen sex video 2175

First time Sexual Films 18 sex xxx 1785 ryushare uploaded keep2share

First time Sexual Films 18 sex xxx 1785

Episode 240 – 20 years old GirlsDoPorn.com ryushare uploaded keep2share

Episode 240 – 20 years old GirlsDoPorn.com

Report broken links / Post a comment

You must be logged in to post a comment.



General\r\nComplete name : D:HD Teens Download Porn Sex clips movies Tube.xxxTHRPNBtyTHRPNBty.mp4\r\nFormat : MPEG-4\r\nFormat profile : Base Media\r\nCodec ID : isom\r\nFile size : 816 MiB\r\nDuration : 32mn 31s\r\nOverall bit rate : 3 506 Kbps\r\nWriting application : Lavf55.11.101\r\n\r\nVideo\r\nID : 1\r\nFormat : AVC\r\nFormat/Info : Advanced Video Codec\r\nFormat profile : [email protected]\r\nFormat settings, CABAC : Yes\r\nFormat settings, ReFrames : 5 frames\r\nCodec ID : avc1\r\nCodec ID/Info : Advanced Video Coding\r\nDuration : 32mn 31s\r\nSource duration : 3mn 53s\r\nBit rate : 3 338 Kbps\r\nWidth : 1 920 pixels\r\nHeight : 1 080 pixels\r\nDisplay aspect ratio : 16:9\r\nFrame rate mode : Constant\r\nFrame rate : 29.970 fps\r\nColor space : YUV\r\nChroma subsampling : 4:2:0\r\nBit depth : 8 bits\r\nScan type : Progressive\r\nBits/(Pixel*Frame) : 0.054\r\nStream size : 776 MiB (95%)\r\nSource stream size : 776 MiB (95%)\r\nWriting library : x264 core 133 r2334 a3ac64b\r\nEncoding settings : cabac=1 / ref=5 / deblock=1:0:0 / analyse=0x3:0x113 / me=umh / subme=8 / psy=1 / psy_rd=1.00:0.00 / mixed_ref=1 / me_range=16 / chroma_me=1 / trellis=1 / 8x8dct=1 / cqm=0 / deadzone=21,11 / fast_pskip=1 / chroma_qp_offset=0 / threads=6 / lookahead_threads=1 / sliced_threads=0 / nr=0 / decimate=1 / interlaced=0 / bluray_compat=0 / constrained_intra=0 / bframes=3 / b_pyramid=2 / b_adapt=2 / b_bias=0 / direct=3 / weightb=1 / open_gop=0 / weightp=2 / keyint=150 / keyint_min=15 / scenecut=40 / intra_refresh=0 / rc_lookahead=50 / rc=crf / mbtree=1 / crf=22.0 / qcomp=0.60 / qpmin=0 / qpmax=69 / qpstep=4 / vbv_maxrate=9000 / vbv_bufsize=9000 / crf_max=0.0 / nal_hrd=none / ip_ratio=1.40 / aq=1:1.00\r\nmdhd_Duration : 1951452\r\n\r\nAudio\r\nID : 2\r\nFormat : AAC\r\nFormat/Info : Advanced Audio Codec\r\nFormat profile : LC\r\nCodec ID : 40\r\nDuration : 32mn 31s\r\nDuration_LastFrame : -10ms\r\nBit rate mode : Constant\r\nBit rate : 160 Kbps\r\nChannel(s) : 2 channels\r\nChannel positions : Front: L R\r\nSampling rate : 44.1 KHz\r\nCompression mode : Lossy\r\nStream size : 37.2 MiB (5%)\r\n\r\n