A lot of cocks for a teen

Teens fucked doggy styleHot brunette blowjob

Posted in Amateur, HD Porn, Sex Movies, Teen, Threesome | 7730 Views |


Rate this girl !!!




\r\n\r\n\r\n\r\nA lot of cocks for a teen\r\n\r\n Link(729 Mb||46:35||1280*720||MP4) \r\n\r\n 



DOWNLOAD

Keep2share.cc - Uploaded.net - Openload.co - Rapidu.net


http://keep2share.cc/file/52e6219cc16ce
http://ryushare.com/nqzaqnjdqrsd/FCNGSMnr.rar
http://ul.to/x7m8ro0v


Premium here:
uploaded.net
keep2share.cc
rapidu.net.cc

Teens related to A lot of cocks for a teen


Teen porn movies 224809 ryushare uploaded keep2share

Teen porn movies 224809

Teen Sex Porn Videos Free Nude Teens 3857 ryushare uploaded keep2share

Teen Sex Porn Videos Free Nude Teens 3857

Teenage Fuck Clips 1939 ryushare uploaded keep2share

Teenage Fuck Clips 1939

PRONO SEX VIDEO ryushare uploaded keep2share

PRONO SEX VIDEO

Teeny Tini Striptease ryushare uploaded keep2share

Teeny Tini Striptease

Teen xxx sex hd 5239 ryushare uploaded keep2share

Teen xxx sex hd 5239

Sweet Teen Porn – Young Porn Videos 224494 ryushare uploaded keep2share

Sweet Teen Porn – Young Porn Videos 224494

HQ Sex Movies Download 1850 ryushare uploaded keep2share

HQ Sex Movies Download 1850

www teen fuckhd image gallary com 226522 ryushare uploaded keep2share

www teen fuckhd image gallary com 226522

Teen Sex Movies Young Porn Tube Vids 224610 ryushare uploaded keep2share

Teen Sex Movies Young Porn Tube Vids 224610

[AbbyWinters.com] Editors Choice – October 2012 Squirting ryushare uploaded keep2share

[AbbyWinters.com] Editors Choice – October 2012 Squirting

www video9 in 226088 ryushare uploaded keep2share

www video9 in 226088

Kiara Lord – Offline Erotica ryushare uploaded keep2share

Kiara Lord – Offline Erotica

Teen Tits Tube, Young Girls Porn Videos 224090 ryushare uploaded keep2share

Teen Tits Tube, Young Girls Porn Videos 224090

Hd young videos 3854 ryushare uploaded keep2share

Hd young videos 3854

Girls do porn in HD 225281 ryushare uploaded keep2share

Girls do porn in HD 225281

Wow Porn Movies download) 224280 ryushare uploaded keep2share

Wow Porn Movies download) 224280

Hd quality – Teen sex video 223909 ryushare uploaded keep2share

Hd quality – Teen sex video 223909

HD Porn Videos 2640 ryushare uploaded keep2share

HD Porn Videos 2640

Young XXX Tube Videos 2812 ryushare uploaded keep2share

Young XXX Tube Videos 2812

wow grils ryushare uploaded keep2share

wow grils

8 Teen XXX – Teen Sex 224953 ryushare uploaded keep2share

8 Teen XXX – Teen Sex 224953

download direct short video of intercourse ryushare uploaded keep2share

download direct short video of intercourse

Dani Jensen – NaughtyAmerica ryushare uploaded keep2share

Dani Jensen – NaughtyAmerica

High Definition Movies on HD 224755 ryushare uploaded keep2share

High Definition Movies on HD 224755

Amarna Miller & Juan Lucho – Que Es La Pasion ryushare uploaded keep2share

Amarna Miller & Juan Lucho – Que Es La Pasion

PornstarPlatinum.com / JoslynJames.xxx] Joslyn James ryushare uploaded keep2share

PornstarPlatinum.com / JoslynJames.xxx] Joslyn James

Hardcore sex videos in the high definition quality 223959 ryushare uploaded keep2share

Hardcore sex videos in the high definition quality 223959

Free Young Porn Videos XXX Teen Porn 3495 ryushare uploaded keep2share

Free Young Porn Videos XXX Teen Porn 3495

sexy video HD down ryushare uploaded keep2share

sexy video HD down

Teen 18 Porn XXX Clips Naked 224373 ryushare uploaded keep2share

Teen 18 Porn XXX Clips Naked 224373

Young Sex Movies 225934 ryushare uploaded keep2share

Young Sex Movies 225934

Tracy Smile ryushare uploaded keep2share

Tracy Smile

Porno lesbian young teens movies 4245 ryushare uploaded keep2share

Porno lesbian young teens movies 4245

Report broken links / Post a comment

You must be logged in to post a comment.



General\r\nComplete name : D:A lot of cocks for a teenFCNGSMnrFCNGSMnr.mp4\r\nFormat : MPEG-4\r\nFormat profile : Base Media / Version 2\r\nCodec ID : mp42\r\nFile size : 729 MiB\r\nDuration : 46mn 35s\r\nOverall bit rate mode : Variable\r\nOverall bit rate : 2 188 Kbps\r\nEncoded date : UTC 2014-01-21 11:15:08\r\nTagged date : UTC 2014-01-21 11:15:08\r\n\r\nVideo\r\nID : 1\r\nFormat : AVC\r\nFormat/Info : Advanced Video Codec\r\nFormat profile : [email protected]\r\nFormat settings, CABAC : Yes\r\nFormat settings, ReFrames : 3 frames\r\nFormat settings, GOP : M=4, N=25\r\nCodec ID : avc1\r\nCodec ID/Info : Advanced Video Coding\r\nDuration : 46mn 35s\r\nBit rate : 1 995 Kbps\r\nWidth : 1 280 pixels\r\nHeight : 720 pixels\r\nDisplay aspect ratio : 16:9\r\nFrame rate mode : Variable\r\nFrame rate : 25.000 fps\r\nMinimum frame rate : 25.000 fps\r\nMaximum frame rate : 25.025 fps\r\nStandard : PAL\r\nColor space : YUV\r\nChroma subsampling : 4:2:0\r\nBit depth : 8 bits\r\nScan type : Progressive\r\nBits/(Pixel*Frame) : 0.087\r\nStream size : 665 MiB (91%)\r\nLanguage : English\r\nEncoded date : UTC 2014-01-21 11:15:08\r\nTagged date : UTC 2014-01-21 11:15:08\r\n\r\nAudio\r\nID : 2\r\nFormat : AAC\r\nFormat/Info : Advanced Audio Codec\r\nFormat profile : LC\r\nCodec ID : 40\r\nDuration : 46mn 35s\r\nBit rate mode : Variable\r\nBit rate : 192 Kbps\r\nMaximum bit rate : 298 Kbps\r\nChannel(s) : 2 channels\r\nChannel positions : Front: L R\r\nSampling rate : 48.0 KHz\r\nCompression mode : Lossy\r\nStream size : 63.1 MiB (9%)\r\nLanguage : English\r\nEncoded date : UTC 2014-01-21 11:15:08\r\nTagged date : UTC 2014-01-21 11:15:08\r\n\r\n