8 Teen XXX – Teen Sex 1972

Nude Teens fucking hard 1979High Definition Movies on HD 1969

Posted in HD Porn, Pornstar, Sex Movies, Teen | 20309 Views |


Rate this girl !!!




\r\n\r\n\r\n\r\n\r\nhttp://img103.imagetwist.com/i/05305/jzsh53cvfuqk.jpeg\r\n\r\n Link(1.03 Gb||28:38||1280*720||MP4)



DOWNLOAD

Keep2share.cc - Uploaded.net - Openload.co - Rapidu.net


http://k2s.cc/file/89986689ee5be/SMJNCGrf.rar
http://ryushare.com/zjvs9lq9477j/SMJNCGrf.rar
http://ul.to/dbpzyn27/SMJNCGrf.rar


Premium here:
uploaded.net
keep2share.cc
rapidu.net.cc


Teens related to 8 Teen XXX – Teen Sex 1972


Tantric Massage – All Sex HD1080p ryushare uploaded keep2share

Tantric Massage – All Sex HD1080p

18YearsOld.com Megan Rain – Playing Hooky ryushare uploaded keep2share

18YearsOld.com Megan Rain – Playing Hooky

Teenage Fuck Clips 4003 ryushare uploaded keep2share

Teenage Fuck Clips 4003

Hot sex girls movies download 2809 ryushare uploaded keep2share

Hot sex girls movies download 2809

Orgy with young teens ryushare uploaded keep2share

Orgy with young teens

sex mkv movies hd 226711 ryushare uploaded keep2share

sex mkv movies hd 226711

www j mp 18xxx video com ryushare uploaded keep2share

www j mp 18xxx video com

wow-Girlsporn net 226212 ryushare uploaded keep2share

wow-Girlsporn net 226212

Wow porn tube movies 4986 ryushare uploaded keep2share

Wow porn tube movies 4986

www 18year grils sex vedios 226269 ryushare uploaded keep2share

www 18year grils sex vedios 226269

Sweet Teen Porn – Young Porn Videos 4630 ryushare uploaded keep2share

Sweet Teen Porn – Young Porn Videos 4630

HQ Sex Movies Download 4226 ryushare uploaded keep2share

HQ Sex Movies Download 4226

First time Sexual Films 18 sex xxx 3607 ryushare uploaded keep2share

First time Sexual Films 18 sex xxx 3607

Hardcore Sex Hub 225185 ryushare uploaded keep2share

Hardcore Sex Hub 225185

K Three Teasing Tongues 5 – A ryushare uploaded keep2share

K Three Teasing Tongues 5 – A

First time Sexual Films 18 sex xxx 4745 ryushare uploaded keep2share

First time Sexual Films 18 sex xxx 4745

Wow girls downloads hd 5433 ryushare uploaded keep2share

Wow girls downloads hd 5433

tube sex 17 girl ryushare uploaded keep2share

tube sex 17 girl

Wow girls hd porn teens 224738 ryushare uploaded keep2share

Wow girls hd porn teens 224738

www 8-8teen com 225994 ryushare uploaded keep2share

www 8-8teen com 225994

21Naturals.com Michelle Moore – Blindfolded ryushare uploaded keep2share

21Naturals.com Michelle Moore – Blindfolded

telecharger free young sex mp4 hd ryushare uploaded keep2share

telecharger free young sex mp4 hd

Good Teen Tube Sexy Young Naked Girls Movies 225959 ryushare uploaded keep2share

Good Teen Tube Sexy Young Naked Girls Movies 225959

Adult Hardcore XXX Sex Videos 3795 ryushare uploaded keep2share

Adult Hardcore XXX Sex Videos 3795

girlboy xxxwalpaper 226160 ryushare uploaded keep2share

girlboy xxxwalpaper 226160

21 sextury hd resimler 226581 ryushare uploaded keep2share

21 sextury hd resimler 226581

Young 720p hd porn 3634 ryushare uploaded keep2share

Young 720p hd porn 3634

www world sex hd downlod com ryushare uploaded keep2share

www world sex hd downlod com

K Craving Lips 3 – B ryushare uploaded keep2share

K Craving Lips 3 – B

18OnlyGirls – Natasha – 25 Clips Video Pack ryushare uploaded keep2share

18OnlyGirls – Natasha – 25 Clips Video Pack

Free High Quality Sex Movies 2139 ryushare uploaded keep2share

Free High Quality Sex Movies 2139

hd porn videos in England 226222 ryushare uploaded keep2share

hd porn videos in England 226222

Schoolgirl white skin ryushare uploaded keep2share

Schoolgirl white skin

My bigtits girlfriend fornication – in the sack ryushare uploaded keep2share

My bigtits girlfriend fornication – in the sack

Young Sex Movies 224761 ryushare uploaded keep2share

Young Sex Movies 224761

Report broken links / Post a comment

You must be logged in to post a comment.



General\r\nComplete name : D:\218SMJNCGrfSMJNCGrf.mp4\r\nFormat : MPEG-4\r\nFormat profile : Base Media / Version 2\r\nCodec ID : mp42\r\nFile size : 1.03 GiB\r\nDuration : 28mn 38s\r\nOverall bit rate mode : Variable\r\nOverall bit rate : 5 131 Kbps\r\nEncoded date : UTC 2013-12-14 12:20:43\r\nTagged date : UTC 2013-12-14 12:20:43\r\nWriting library : Apple QuickTime\r\n\r\nVideo\r\nID : 1\r\nFormat : AVC\r\nFormat/Info : Advanced Video Codec\r\nFormat profile : [email protected]\r\nFormat settings, CABAC : No\r\nFormat settings, ReFrames : 2 frames\r\nCodec ID : avc1\r\nCodec ID/Info : Advanced Video Coding\r\nDuration : 28mn 38s\r\nBit rate : 4 999 Kbps\r\nWidth : 1 280 pixels\r\nHeight : 720 pixels\r\nDisplay aspect ratio : 16:9\r\nFrame rate mode : Constant\r\nFrame rate : 23.976 fps\r\nStandard : NTSC\r\nColor space : YUV\r\nChroma subsampling : 4:2:0\r\nBit depth : 8 bits\r\nScan type : Progressive\r\nBits/(Pixel*Frame) : 0.226\r\nStream size : 1.00 GiB (97%)\r\nLanguage : English\r\nEncoded date : UTC 2013-12-14 12:20:43\r\nTagged date : UTC 2013-12-14 12:20:43\r\nmdhd_Duration : 1718343\r\n\r\nAudio\r\nID : 2\r\nFormat : AAC\r\nFormat/Info : Advanced Audio Codec\r\nFormat profile : LC\r\nCodec ID : 40\r\nDuration : 28mn 38s\r\nBit rate mode : Variable\r\nBit rate : 128 Kbps\r\nMaximum bit rate : 134 Kbps\r\nChannel(s) : 2 channels\r\nChannel positions : Front: L R\r\nSampling rate : 44.1 KHz\r\nCompression mode : Lossy\r\nStream size : 26.2 MiB (2%)\r\nLanguage : English\r\nEncoded date : UTC 2013-12-14 12:20:43\r\nTagged date : UTC 2013-12-14 12:20:43\r\n\r\n