8 Teen XXX – Teen Sex 1386

Tube Young Sex 1390Good Teen Tube Sexy Young Naked Girls Movies 1383

Posted in Amateur, HD Porn, Sex Movies, Teen | 30655 Views |


Rate this girl !!!




\r\n\r\n\r\nhttp://img102.imagetwist.com/i/05200/bhp0itvydr9w.jpg\r\n\r\n Link(386 Mb||15:04||1280*720||WMV)



DOWNLOAD

Keep2share.cc - Uploaded.net - Openload.co - Rapidu.net


http://ul.to/u3aautun
http://ryushare.com/7gx5msrfv95r/NBSGRSls.rar
http://keep2share.cc/file/efd9bfb236507


Premium here:
uploaded.net
keep2share.cc
rapidu.net.cc


Teens related to 8 Teen XXX – Teen Sex 1386


Amateur Teen Sex 224595 ryushare uploaded keep2share

Amateur Teen Sex 224595

College Teen Sex 2160 ryushare uploaded keep2share

College Teen Sex 2160

Mega – Time To Fuck – Episode 432 ryushare uploaded keep2share

Mega – Time To Fuck – Episode 432

Young Sex Movies 224182 ryushare uploaded keep2share

Young Sex Movies 224182

Teens 1080p hd porn 2520 ryushare uploaded keep2share

Teens 1080p hd porn 2520

Hot Tina, Kayla Green – Lessons in Lust ryushare uploaded keep2share

Hot Tina, Kayla Green – Lessons in Lust

Grace and Kimmie – Friend of a Friend ryushare uploaded keep2share

Grace and Kimmie – Friend of a Friend

Pchd full fuckin video 226436 ryushare uploaded keep2share

Pchd full fuckin video 226436

Porn shortest videos free download ryushare uploaded keep2share

Porn shortest videos free download

www hdxxx porn tube 226248 ryushare uploaded keep2share

www hdxxx porn tube 226248

wwwx video donlose hd com 226152 ryushare uploaded keep2share

wwwx video donlose hd com 226152

Connie Carter – Slippery Sweet ryushare uploaded keep2share

Connie Carter – Slippery Sweet

Eva, Alberta, Niona, Nora – Sex party ryushare uploaded keep2share

Eva, Alberta, Niona, Nora – Sex party

HD Porn Teen Sex Videos 2786 ryushare uploaded keep2share

HD Porn Teen Sex Videos 2786

baby hd mp4 deflortioan sex 226670 ryushare uploaded keep2share

baby hd mp4 deflortioan sex 226670

Teen Sex Videos Tube Movies 1942 ryushare uploaded keep2share

Teen Sex Videos Tube Movies 1942

kHz xxx sex ryushare uploaded keep2share

kHz xxx sex

Uploaded net porn XXX 5126 ryushare uploaded keep2share

Uploaded net porn XXX 5126

Good Teen Tube Sexy Young Naked Girls Movies 4454 ryushare uploaded keep2share

Good Teen Tube Sexy Young Naked Girls Movies 4454

Young Virgin Pussy Teen Fuck Tube 4173 ryushare uploaded keep2share

Young Virgin Pussy Teen Fuck Tube 4173

xxxx clips hd ryushare uploaded keep2share

xxxx clips hd

Teen Sex Videos Big Tits Amateur 4768 ryushare uploaded keep2share

Teen Sex Videos Big Tits Amateur 4768

Wow porn tube movies 224392 ryushare uploaded keep2share

Wow porn tube movies 224392

HD Porn Videos 225579 ryushare uploaded keep2share

HD Porn Videos 225579

Taissia Shanti – Hot and Steamy ryushare uploaded keep2share

Taissia Shanti – Hot and Steamy

Sex Teens porn movies 2846 ryushare uploaded keep2share

Sex Teens porn movies 2846

free high resolution porn movies 226717 ryushare uploaded keep2share

free high resolution porn movies 226717

Hot download sex girls movies 225877 ryushare uploaded keep2share

Hot download sex girls movies 225877

Teen Sex Videos Tube Movies 225847 ryushare uploaded keep2share

Teen Sex Videos Tube Movies 225847

Free High Quality Sex Movies 1901 ryushare uploaded keep2share

Free High Quality Sex Movies 1901

Teen porn movies 1607 ryushare uploaded keep2share

Teen porn movies 1607

High Definition Movies on HD Teen Porn XXX Tube 2597 ryushare uploaded keep2share

High Definition Movies on HD Teen Porn XXX Tube 2597

Watch Teen Sex Videos HD 224129 ryushare uploaded keep2share

Watch Teen Sex Videos HD 224129

Good Teen Tube Sexy Young Naked Girls Movies 224389 ryushare uploaded keep2share

Good Teen Tube Sexy Young Naked Girls Movies 224389

Hd young videos 3757 ryushare uploaded keep2share

Hd young videos 3757

Report broken links / Post a comment

You must be logged in to post a comment.



General\r\nComplete name : D:HD Teens Tube Download Porn Sex clips movies.xxxNBSGRSlsNBSGRSls.wmv\r\nFormat : Windows Media\r\nFile size : 386 MiB\r\nDuration : 15mn 4s\r\nOverall bit rate mode : Constant\r\nOverall bit rate : 3 580 Kbps\r\nMaximum Overall bit rate : 3 594 Kbps\r\nEncoded date : UTC 2008-02-23 00:04:24.448\r\nWriting application : TMPGEnc 4.0 XPress Version. 4.2.3.193\r\n\r\nVideo\r\nID : 2\r\nFormat : VC-1\r\nFormat profile : [email protected]\r\nCodec ID : WMV3\r\nCodec ID/Info : Windows Media Video 9\r\nCodec ID/Hint : WMV3\r\nDescription of the codec : Windows Media Video 9 - Professional\r\nDuration : 15mn 4s\r\nBit rate mode : Constant\r\nBit rate : 3 500 Kbps\r\nWidth : 1 280 pixels\r\nHeight : 720 pixels\r\nDisplay aspect ratio : 16:9\r\nFrame rate : 29.970 fps\r\nColor space : YUV\r\nChroma subsampling : 4:2:0\r\nBit depth : 8 bits\r\nScan type : Progressive\r\nCompression mode : Lossy\r\nBits/(Pixel*Frame) : 0.127\r\nStream size : 378 MiB (98%)\r\nLanguage : English (US)\r\n\r\nAudio\r\nID : 1\r\nFormat : WMA\r\nFormat version : Version 2\r\nCodec ID : 161\r\nCodec ID/Info : Windows Media Audio\r\nDescription of the codec : Windows Media Audio 9 - 64 kbps, 48 kHz, stereo 1-pass CBR\r\nDuration : 15mn 4s\r\nBit rate mode : Constant\r\nBit rate : 64.0 Kbps\r\nChannel(s) : 2 channels\r\nSampling rate : 48.0 KHz\r\nBit depth : 16 bits\r\nStream size : 6.90 MiB (2%)\r\nLanguage : English (US)\r\n\r\n