21Naturals.com Chirsten, Inner beauty

21Naturals.com Kiara Lord – Strings of passionFuckStudies.com El Storm

Posted in HD Porn, Pornstar, Sex Movies, Teen | 11712 Views |


Rate this girl !!!




cover\r\n\r\n1920x1080p / MP4 / 1.28 GB\r\n

[21Naturals.com] Chirsten – Inner beauty

\r\nSCREENSHOTS:\r\n\r\nscreens



DOWNLOAD

Keep2share.cc - Uploaded.net - Openload.co - Rapidu.net



http://ul.to/7p1e10fy/400104-1080p.mp4
http://played.to/kd0benikqir1


Premium here:
uploaded.net
keep2share.cc
rapidu.net.cc


Teens related to 21Naturals.com Chirsten, Inner beauty


Teen xxx sex hd 223813 ryushare uploaded keep2share

Teen xxx sex hd 223813

TrickyMasseur.com Isabeli ryushare uploaded keep2share

TrickyMasseur.com Isabeli

Teen Sex Movies 5445 ryushare uploaded keep2share

Teen Sex Movies 5445

First time Sexual Films 18 sex xxx 224473 ryushare uploaded keep2share

First time Sexual Films 18 sex xxx 224473

HD Sex World Videos High Definition Free Porn 1501 ryushare uploaded keep2share

HD Sex World Videos High Definition Free Porn 1501

Wow porn tube movies 225396 ryushare uploaded keep2share

Wow porn tube movies 225396

HD Porn Teen Sex Videos 223795 ryushare uploaded keep2share

HD Porn Teen Sex Videos 223795

www sex all world hd com 226654 ryushare uploaded keep2share

www sex all world hd com 226654

Alexis seduced by neighbour ryushare uploaded keep2share

Alexis seduced by neighbour

Young XXX Tube Videos 3564 ryushare uploaded keep2share

Young XXX Tube Videos 3564

First time Sexual Films 18 sex xxx 224947 ryushare uploaded keep2share

First time Sexual Films 18 sex xxx 224947

Girls sex art hd teens videos 5470 ryushare uploaded keep2share

Girls sex art hd teens videos 5470

Natasha White And Dakota Skye ryushare uploaded keep2share

Natasha White And Dakota Skye

antartika poeno sex 226048 ryushare uploaded keep2share

antartika poeno sex 226048

HD Porn Videos 1476 ryushare uploaded keep2share

HD Porn Videos 1476

[AbbyWinters.com] Sasha R. ryushare uploaded keep2share

[AbbyWinters.com] Sasha R.

ClubSeventeen.com SiteRip – Part 2 ryushare uploaded keep2share

ClubSeventeen.com SiteRip – Part 2

breezer hd porn video 226339 ryushare uploaded keep2share

breezer hd porn video 226339

Teen xxx sex hd 225384 ryushare uploaded keep2share

Teen xxx sex hd 225384

Young Sex Movies 2737 ryushare uploaded keep2share

Young Sex Movies 2737

1020p hd sex videos 226575 ryushare uploaded keep2share

1020p hd sex videos 226575

Fresh Teen Videos 224791 ryushare uploaded keep2share

Fresh Teen Videos 224791

Wow Girls Porn Clips download 225381 ryushare uploaded keep2share

Wow Girls Porn Clips download 225381

Teen 18 Porn XXX Clips Naked 2084 ryushare uploaded keep2share

Teen 18 Porn XXX Clips Naked 2084

Little pornstar teen with a big hole ryushare uploaded keep2share

Little pornstar teen with a big hole

porn xxx sax move com ryushare uploaded keep2share

porn xxx sax move com

Young legal porn clips 3026 ryushare uploaded keep2share

Young legal porn clips 3026

8 Teen XXX – Teen Sex 224510 ryushare uploaded keep2share

8 Teen XXX – Teen Sex 224510

Watch Teen Sex Videos HD 4869 ryushare uploaded keep2share

Watch Teen Sex Videos HD 4869

Teen porn movies 2132 ryushare uploaded keep2share

Teen porn movies 2132

pinkworld video teen fuck hard ryushare uploaded keep2share

pinkworld video teen fuck hard

Teen Tits Tube, Young Girls Porn Videos 3672 ryushare uploaded keep2share

Teen Tits Tube, Young Girls Porn Videos 3672

HD Porn Video 5532 ryushare uploaded keep2share

HD Porn Video 5532

www hd brazzers sex in com 226593 ryushare uploaded keep2share

www hd brazzers sex in com 226593

Teen Porn XXX Tube 224586 ryushare uploaded keep2share

Teen Porn XXX Tube 224586

Report broken links / Post a comment

You must be logged in to post a comment.



[21Naturals.com] Chirsten – Inner beauty \r\n\r\nGeneral\r\nComplete name : J:HD Teens Movies Young Downloads Online Clips Scenes [21Naturals.com] Chirsten – Inner beauty 400104-1080p.mp4\r\nFormat : MPEG-4\r\nFormat profile : Base Media / Version 2\r\nCodec ID : mp42\r\nFile size : 1.28 GiB\r\nDuration : 29mn 30s\r\nOverall bit rate mode : Variable\r\nOverall bit rate : 6 193 Kbps\r\nEncoded date : UTC 2014-10-03 10:22:18\r\nTagged date : UTC 2014-10-03 10:22:18\r\n\r\nVideo\r\nID : 1\r\nFormat : AVC\r\nFormat/Info : Advanced Video Codec\r\nFormat profile : [email protected]\r\nFormat settings, CABAC : Yes\r\nFormat settings, ReFrames : 4 frames\r\nCodec ID : avc1\r\nCodec ID/Info : Advanced Video Coding\r\nDuration : 29mn 30s\r\nBit rate : 6 000 Kbps\r\nWidth : 1 920 pixels\r\nHeight : 1 080 pixels\r\nDisplay aspect ratio : 16:9\r\nFrame rate mode : Constant\r\nFrame rate : 25.000 fps\r\nStandard : PAL\r\nColor space : YUV\r\nChroma subsampling : 4:2:0\r\nBit depth : 8 bits\r\nScan type : Progressive\r\nBits/(Pixel*Frame) : 0.116\r\nStream size : 1.24 GiB (97%)\r\nLanguage : English\r\nEncoded date : UTC 2014-10-03 10:22:18\r\nTagged date : UTC 2014-10-03 10:22:18\r\nColor primaries : BT.709\r\nTransfer characteristics : BT.709\r\nMatrix coefficients : BT.709\r\n\r\nAudio\r\nID : 2\r\nFormat : AAC\r\nFormat/Info : Advanced Audio Codec\r\nFormat profile : LC\r\nCodec ID : 40\r\nDuration : 29mn 30s\r\nBit rate mode : Variable\r\nBit rate : 192 Kbps\r\nMaximum bit rate : 262 Kbps\r\nChannel count : 2 channels\r\nChannel positions : Front: L R\r\nSampling rate : 48.0 KHz\r\nCompression mode : Lossy\r\nStream size : 40.0 MiB (3%)\r\nLanguage : English\r\nEncoded date : UTC 2014-10-03 10:22:18\r\nTagged date : UTC 2014-10-03 10:22:18\r\n\r\n