21Naturals.com Ava Dalush – Puppeteer

WowPorn.com Michelle,The Primal Need For Love. REDX-Angels.com Lida

Posted in HD Porn, Pornstar, Sex Movies, Teen | 7943 Views |


Rate this girl !!!




cover\r\n\r\n1920x1080p / MP4 / 1.24 GB\r\n

[21Naturals.com] Ava Dalush – Puppeteer

\r\nSCREENSHOTS:\r\n\r\nscreens



DOWNLOAD

Keep2share.cc - Uploaded.net - Openload.co - Rapidu.net


http://played.to/1gnwoj9rs8rg

http://ul.to/k0hma7mf/4oo1o6.1o8op.mp4


Premium here:
uploaded.net
keep2share.cc
rapidu.net.cc


Teens related to 21Naturals.com Ava Dalush – Puppeteer


xxx teen clips 226044 ryushare uploaded keep2share

xxx teen clips 226044

Kiara Lord – Offline Erotica ryushare uploaded keep2share

Kiara Lord – Offline Erotica

HQ Sex Movies Download 5330 ryushare uploaded keep2share

HQ Sex Movies Download 5330

The best Teen sex 4035 ryushare uploaded keep2share

The best Teen sex 4035

Hot Teen Sex 1819 ryushare uploaded keep2share

Hot Teen Sex 1819

Lucy Li – 18OnlyGirls ryushare uploaded keep2share

Lucy Li – 18OnlyGirls

Low mb full hd sex video download 226510 ryushare uploaded keep2share

Low mb full hd sex video download 226510

Teen Porn XXX Tube 224497 ryushare uploaded keep2share

Teen Porn XXX Tube 224497

hi sex movies download in hq 226295 ryushare uploaded keep2share

hi sex movies download in hq 226295

Rocco Siffredi Casting1080p ryushare uploaded keep2share

Rocco Siffredi Casting1080p

Teen Sex Movies Young Porn Tube Vids 3596 ryushare uploaded keep2share

Teen Sex Movies Young Porn Tube Vids 3596

Uploaded net porn 2834 ryushare uploaded keep2share

Uploaded net porn 2834

Teen porn xxx 225534 ryushare uploaded keep2share

Teen porn xxx 225534

Young xxx 224310 ryushare uploaded keep2share

Young xxx 224310

hd porn videos in low size download free 226092 ryushare uploaded keep2share

hd porn videos in low size download free 226092

Free High Quality Sex Movies 1698 ryushare uploaded keep2share

Free High Quality Sex Movies 1698

Teen Pornstars Orgy ryushare uploaded keep2share

Teen Pornstars Orgy

Teen Porn XXX Tube 1470 ryushare uploaded keep2share

Teen Porn XXX Tube 1470

HD Teen Sex Tube 3488 ryushare uploaded keep2share

HD Teen Sex Tube 3488

Teen Tits Tube, Young Girls Porn Videos 3672 ryushare uploaded keep2share

Teen Tits Tube, Young Girls Porn Videos 3672

xxxnx videos hd 18 con 226659 ryushare uploaded keep2share

xxxnx videos hd 18 con 226659

HD Porn Teen Sex Videos 2491 ryushare uploaded keep2share

HD Porn Teen Sex Videos 2491

Good Teen Tube Sexy Young Naked Girls Movies 225497 ryushare uploaded keep2share

Good Teen Tube Sexy Young Naked Girls Movies 225497

Teen Sex Videos Tube Movies 5036 ryushare uploaded keep2share

Teen Sex Videos Tube Movies 5036

The best Teen sex 3727 ryushare uploaded keep2share

The best Teen sex 3727

Angela & Lindsey A Threesome Date ryushare uploaded keep2share

Angela & Lindsey A Threesome Date

Amateur Teen Sex 4729 ryushare uploaded keep2share

Amateur Teen Sex 4729

Teen Sex Porn Videos Free Nude Teens 3009 ryushare uploaded keep2share

Teen Sex Porn Videos Free Nude Teens 3009

Teen 18 Porn XXX Clips Naked 2154 ryushare uploaded keep2share

Teen 18 Porn XXX Clips Naked 2154

[LegalPorno.com] Rebecca Volpetti (Rebecca Volpetti goes hardcore: 3on1 anal & DP SZ1298) [2016 г., Gonzo, Gangbang, Anal, DP, Swallow, 720p] Страницы:  1 ryushare uploaded keep2share

[LegalPorno.com] Rebecca Volpetti (Rebecca Volpetti goes hardcore: 3on1 anal & DP SZ1298) [2016 г., Gonzo, Gangbang, Anal, DP, Swallow, 720p] Страницы: 1

HD Sex World Videos High Definition Free Porn 5342 ryushare uploaded keep2share

HD Sex World Videos High Definition Free Porn 5342

xxx videos hd 1280p com ryushare uploaded keep2share

xxx videos hd 1280p com

www hdsexy xxx 226508 ryushare uploaded keep2share

www hdsexy xxx 226508

HD Sex World Videos High Definition Free Porn 5561 ryushare uploaded keep2share

HD Sex World Videos High Definition Free Porn 5561

HD Porn Teen Sex Videos 3959 ryushare uploaded keep2share

HD Porn Teen Sex Videos 3959

Report broken links / Post a comment

You must be logged in to post a comment.



[21Naturals.com] Ava Dalush – Puppeteer \r\nGeneral\r\nComplete name : J:HD Teens Movies Young Downloads Online Clips Scenes [21Naturals.com] Ava Dalush – Puppeteer 4oo1o6.1o8op.mp4\r\nFormat : MPEG-4\r\nFormat profile : Base Media / Version 2\r\nCodec ID : mp42\r\nFile size : 1.24 GiB\r\nDuration : 28mn 41s\r\nOverall bit rate mode : Variable\r\nOverall bit rate : 6 191 Kbps\r\nEncoded date : UTC 2014-10-16 11:05:01\r\nTagged date : UTC 2014-10-16 11:05:01\r\n\r\nVideo\r\nID : 1\r\nFormat : AVC\r\nFormat/Info : Advanced Video Codec\r\nFormat profile : [email protected]\r\nFormat settings, CABAC : Yes\r\nFormat settings, ReFrames : 4 frames\r\nCodec ID : avc1\r\nCodec ID/Info : Advanced Video Coding\r\nDuration : 28mn 41s\r\nBit rate : 5 998 Kbps\r\nWidth : 1 920 pixels\r\nHeight : 1 080 pixels\r\nDisplay aspect ratio : 16:9\r\nFrame rate mode : Constant\r\nFrame rate : 25.000 fps\r\nStandard : PAL\r\nColor space : YUV\r\nChroma subsampling : 4:2:0\r\nBit depth : 8 bits\r\nScan type : Progressive\r\nBits/(Pixel*Frame) : 0.116\r\nStream size : 1.20 GiB (97%)\r\nLanguage : English\r\nEncoded date : UTC 2014-10-16 11:05:01\r\nTagged date : UTC 2014-10-16 11:05:01\r\nColor primaries : BT.709\r\nTransfer characteristics : BT.709\r\nMatrix coefficients : BT.709\r\n\r\nAudio\r\nID : 2\r\nFormat : AAC\r\nFormat/Info : Advanced Audio Codec\r\nFormat profile : LC\r\nCodec ID : 40\r\nDuration : 28mn 41s\r\nBit rate mode : Variable\r\nBit rate : 192 Kbps\r\nMaximum bit rate : 261 Kbps\r\nChannel count : 2 channels\r\nChannel positions : Front: L R\r\nSampling rate : 48.0 KHz\r\nCompression mode : Lossy\r\nStream size : 38.9 MiB (3%)\r\nLanguage : English\r\nEncoded date : UTC 2014-10-16 11:05:01\r\nTagged date : UTC 2014-10-16 11:05:01\r\n\r\n