18YearsOld.com Alli Ray – Blindfold My Baby

Nubiles-Porn.com Halle Von – Training To PleaseNubileFilms.com Yozi – Epic Love

Posted in Amateur, HD Porn, Sex Movies, Teen | 8840 Views |


Rate this girl !!!




cover\r\n\r\n1920x1080p / MP4 / 1.46 GB\r\n

[18YearsOld.com] Alli Ray – Blindfold My Baby

\r\n \r\n\r\nSCREENSHOTS:\r\n\r\nscreens



DOWNLOAD

Keep2share.cc - Uploaded.net - Openload.co - Rapidu.net


http://ryushare.com/jb48x627adna/18y0.4ll1.r4y.bl1ndf0ld.my.b4by.03.10.14_1080.mp4
http://ul.to/jem1o2zm/18y0.4ll1.r4y.bl1ndf0ld.my.b4by.03.10.14_1080.mp4
http://k2s.cc/file/0a49018a7e72b/18y0.4ll1.r4y.bl1ndf0ld.my.b4by.03.10.14_1080.mp4
http://played.to/n39tkirylqrj


Premium here:
uploaded.net
keep2share.cc
rapidu.net.cc


Teens related to 18YearsOld.com Alli Ray – Blindfold My Baby


Good Teen Tube Sexy Young Naked Girls Movies 2370 ryushare uploaded keep2share

Good Teen Tube Sexy Young Naked Girls Movies 2370

Hot Teen Sex HD videos 3863 ryushare uploaded keep2share

Hot Teen Sex HD videos 3863

The best Teen sex 6196 ryushare uploaded keep2share

The best Teen sex 6196

HQ Sex Movies Download 4353 ryushare uploaded keep2share

HQ Sex Movies Download 4353

Teen Porn XXX Tube 4159 ryushare uploaded keep2share

Teen Porn XXX Tube 4159

Movies Young legal porn 5451 ryushare uploaded keep2share

Movies Young legal porn 5451

Teen Porn XXX Tube 224497 ryushare uploaded keep2share

Teen Porn XXX Tube 224497

purn mania 226696 ryushare uploaded keep2share

purn mania 226696

Young xxx 224648 ryushare uploaded keep2share

Young xxx 224648

telar with girls sexe video you tube 226766 ryushare uploaded keep2share

telar with girls sexe video you tube 226766

Free High Quality Sex Movies 3471 ryushare uploaded keep2share

Free High Quality Sex Movies 3471

Teen Porn XXX Tube 225861 ryushare uploaded keep2share

Teen Porn XXX Tube 225861

Wow Porn Movies download) 224985 ryushare uploaded keep2share

Wow Porn Movies download) 224985

HQ Sex Movies Download 224196 ryushare uploaded keep2share

HQ Sex Movies Download 224196

Teen xxx sex hd 5505 ryushare uploaded keep2share

Teen xxx sex hd 5505

Hot Teen Sex HD videos 224002 ryushare uploaded keep2share

Hot Teen Sex HD videos 224002

Sex and lots of milk ryushare uploaded keep2share

Sex and lots of milk

Hd quality – Teen sex video 225851 ryushare uploaded keep2share

Hd quality – Teen sex video 225851

Porno movies young teens lesbian 224059 ryushare uploaded keep2share

Porno movies young teens lesbian 224059

Ivana Sugar – Lovely arches ryushare uploaded keep2share

Ivana Sugar – Lovely arches

Two Teasing Tongues 9 ryushare uploaded keep2share

Two Teasing Tongues 9

Hd quality – Teen sex video 225399 ryushare uploaded keep2share

Hd quality – Teen sex video 225399

The Tia Cyrus Tug Job Experience ryushare uploaded keep2share

The Tia Cyrus Tug Job Experience

Free Porn Videos Xxx Movies Pussy Porn 225348 ryushare uploaded keep2share

Free Porn Videos Xxx Movies Pussy Porn 225348

Teen Sex Movies 225608 ryushare uploaded keep2share

Teen Sex Movies 225608

Hot Teen Sex 2145 ryushare uploaded keep2share

Hot Teen Sex 2145

xxx vergn 226412 ryushare uploaded keep2share

xxx vergn 226412

Teen xxx sex hd 224286 ryushare uploaded keep2share

Teen xxx sex hd 224286

Jenna Sativa Rebecca-Volpetti-GANGBANG ryushare uploaded keep2share

Jenna Sativa Rebecca-Volpetti-GANGBANG

wow girl outdor besd hd porn vedio dawunlod 2015 ryushare uploaded keep2share

wow girl outdor besd hd porn vedio dawunlod 2015

Teens in Porno young porn videos and free teen sex 225503 ryushare uploaded keep2share

Teens in Porno young porn videos and free teen sex 225503

Jassie Gold – Hardcore Fucking ryushare uploaded keep2share

Jassie Gold – Hardcore Fucking

[PublicAgent.com] Belle Claire – The Best Tits I’ve Ever Paid For ryushare uploaded keep2share

[PublicAgent.com] Belle Claire – The Best Tits I’ve Ever Paid For

Hd young videos 3757 ryushare uploaded keep2share

Hd young videos 3757

xxx clips 2014 com ryushare uploaded keep2share

xxx clips 2014 com

Report broken links / Post a comment

You must be logged in to post a comment.



General\r\nComplete name : D:hd teens porn download free online 18YearsOld.com Alli Ray – Blindfold My Baby .03.10.14_hd 1080.mp4\r\nFormat : MPEG-4\r\nFormat profile : Base Media\r\nCodec ID : isom\r\nFile size : 1.46 GiB\r\nDuration : 19mn 41s\r\nOverall bit rate mode : Variable\r\nOverall bit rate : 10.6 Mbps\r\nWriting application : Lavf55.44.100\r\n\r\nVideo\r\nID : 1\r\nFormat : AVC\r\nFormat/Info : Advanced Video Codec\r\nFormat profile : [email protected]\r\nFormat settings, CABAC : No\r\nFormat settings, ReFrames : 2 frames\r\nCodec ID : avc1\r\nCodec ID/Info : Advanced Video Coding\r\nDuration : 19mn 41s\r\nBit rate : 10.5 Mbps\r\nWidth : 1 920 pixels\r\nHeight : 1 080 pixels\r\nDisplay aspect ratio : 16:9\r\nFrame rate mode : Constant\r\nFrame rate : 23.976 fps\r\nColor space : YUV\r\nChroma subsampling : 4:2:0\r\nBit depth : 8 bits\r\nScan type : Progressive\r\nBits/(Pixel*Frame) : 0.212\r\nStream size : 1.45 GiB (99%)\r\nWriting library : x264 core 142 r2431 a5831aa\r\nEncoding settings : cabac=0 / ref=2 / deblock=1:0:0 / analyse=0x1:0x111 / me=hex / subme=6 / psy=1 / psy_rd=1.00:0.00 / mixed_ref=1 / me_range=16 / chroma_me=1 / trellis=1 / 8x8dct=0 / cqm=0 / deadzone=21,11 / fast_pskip=1 / chroma_qp_offset=-2 / threads=2 / lookahead_threads=1 / sliced_threads=0 / nr=0 / decimate=1 / interlaced=0 / bluray_compat=0 / constrained_intra=0 / bframes=0 / weightp=0 / keyint=250 / keyint_min=23 / scenecut=40 / intra_refresh=0 / rc_lookahead=30 / rc=crf / mbtree=1 / crf=18.0 / qcomp=0.60 / qpmin=0 / qpmax=69 / qpstep=4 / ip_ratio=1.40 / aq=1:1.00\r\nLanguage : English\r\n\r\nAudio\r\nID : 2\r\nFormat : AAC\r\nFormat/Info : Advanced Audio Codec\r\nFormat profile : LC\r\nCodec ID : 40\r\nDuration : 19mn 41s\r\nBit rate mode : Variable\r\nBit rate : 98.2 Kbps\r\nMaximum bit rate : 128 Kbps\r\nChannel(s) : 2 channels\r\nChannel positions : Front: L R\r\nSampling rate : 48.0 KHz\r\nCompression mode : Lossy\r\nStream size : 13.8 MiB (1%)\r\nLanguage : English\r\n18YearsOld.com Alli Ray – Blindfold My Baby\r\n