18OnlyGirls Nikita (Gina Devine) Here I Cum!

Daisy, Jasmine - Boats n HoesKail - My Favorite Country

Posted in HD Porn, Sex Movies, Teen | 23956 Views |


Rate this girl !!!




18OnlyGirls Nikita (Gina Devine) Here I Cum!\r\n\r\n18OnlyGirls Nikita (Gina Devine) Here I Cum!\r\n\r\n18OnlyGirls Nikita (Gina Devine) Here I Cum!\r\n\r\n18OnlyGirls Nikita (Gina Devine) Here I Cum!\r\n\r\nFile: 18og_Nikita_720.mp4\r\nSize: 368456131 bytes (351.39 MiB), duration: 00:22:59, avg.bitrate: 2138 kb/s\r\nAudio: aac, 44100 Hz, 2 channels, s16, 151 kb/s (und)\r\nVideo: h264, yuv420p, 1280×720, 1980 kb/s, 25.00 fps(r) (und)



DOWNLOAD

Keep2share.cc - Uploaded.net - Openload.co - Rapidu.net


http://ul.to/kzd2bsw2/1.8.og_N.ik.ita_7.20.mp4
http://fileom.com/lprlbmmk5cio/1.8.og_N.ik.ita_7.20.mp4.html
http://k2s.cc/file/a305cddd3b9e4/1.8.og_N.ik.ita_7.20.mp4


Premium here:
uploaded.net
keep2share.cc
rapidu.net.cc

Teens related to 18OnlyGirls Nikita (Gina Devine) Here I Cum!


Young teens tube hot girls free porn video 2828 ryushare uploaded keep2share

Young teens tube hot girls free porn video 2828

full free download 720p hd porn movies 226240 ryushare uploaded keep2share

full free download 720p hd porn movies 226240

My bigtits girlfriend fornication – in the sack ryushare uploaded keep2share

My bigtits girlfriend fornication – in the sack

teen 12 porn images 226585 ryushare uploaded keep2share

teen 12 porn images 226585

Susan Ayn ryushare uploaded keep2share

Susan Ayn

Sweet Teen Porn – Young Porn Videos 224239 ryushare uploaded keep2share

Sweet Teen Porn – Young Porn Videos 224239

Young 720p hd porn 4917 ryushare uploaded keep2share

Young 720p hd porn 4917

Nancey – Dreams Come To Life ryushare uploaded keep2share

Nancey – Dreams Come To Life

HD Teens Sex Tube Videos XxX 4315 ryushare uploaded keep2share

HD Teens Sex Tube Videos XxX 4315

The best Teen sex 224192 ryushare uploaded keep2share

The best Teen sex 224192

Hot Teen Sex HD videos 2354 ryushare uploaded keep2share

Hot Teen Sex HD videos 2354

Porn teen hd downloads 5256 ryushare uploaded keep2share

Porn teen hd downloads 5256

Teen Sex Movies 223950 ryushare uploaded keep2share

Teen Sex Movies 223950

www scool xxx com 226417 ryushare uploaded keep2share

www scool xxx com 226417

telecharger free young sex mp4 hd ryushare uploaded keep2share

telecharger free young sex mp4 hd

wwwhd sax 99 com ryushare uploaded keep2share

wwwhd sax 99 com

hard fuck hd image download 226631 ryushare uploaded keep2share

hard fuck hd image download 226631

ClubSeventeen.com SiteRip – Part 3 ryushare uploaded keep2share

ClubSeventeen.com SiteRip – Part 3

www video9 in 226088 ryushare uploaded keep2share

www video9 in 226088

gina devine seks 226666 ryushare uploaded keep2share

gina devine seks 226666

Veiki & Liona – Two Is Better Then One ryushare uploaded keep2share

Veiki & Liona – Two Is Better Then One

sex videos of 4 MB to download 226246 ryushare uploaded keep2share

sex videos of 4 MB to download 226246

HD Teens Sex Tube Videos XxX 223790 ryushare uploaded keep2share

HD Teens Sex Tube Videos XxX 223790

Nude Teens fucking hard 1613 ryushare uploaded keep2share

Nude Teens fucking hard 1613

Nude Teens fucking hard 3040 ryushare uploaded keep2share

Nude Teens fucking hard 3040

HD teen sex tube 3568 ryushare uploaded keep2share

HD teen sex tube 3568

Young XXX Tube Videos 3564 ryushare uploaded keep2share

Young XXX Tube Videos 3564

[18OnlyGirls.com] Ada – Asian Teen Intense Anal Sex ryushare uploaded keep2share

[18OnlyGirls.com] Ada – Asian Teen Intense Anal Sex

Hd quality – Teen sex video 2175 ryushare uploaded keep2share

Hd quality – Teen sex video 2175

Tube Young Sex 3436 ryushare uploaded keep2share

Tube Young Sex 3436

HD Teen Sex Tube 225339 ryushare uploaded keep2share

HD Teen Sex Tube 225339

Model porno sex 3485 ryushare uploaded keep2share

Model porno sex 3485

Teenage Fuck Clips 225321 ryushare uploaded keep2share

Teenage Fuck Clips 225321

Free High Quality Sex Movies 5482 ryushare uploaded keep2share

Free High Quality Sex Movies 5482

jaaz sex movis 226121 ryushare uploaded keep2share

jaaz sex movis 226121

Report broken links / Post a comment

You must be logged in to post a comment.



General\r\nComplete name : H:HD TEENS PORN/DOWNLOAD/RYUSHARE/UPLOADED/KEEP2SHARE/TURBOBIT/18og_Nikita_720.mp4\r\nFormat : MPEG-4\r\nFormat profile : Base Media\r\nCodec ID : isom\r\nFile size : 351 MiB\r\nDuration : 22mn 59s\r\nOverall bit rate mode : Variable\r\nOverall bit rate : 2 137 Kbps\r\nMovie name : Download from HDteenmania.com\r\nWriting application : Lavf52.64.2\r\nComment : Download from HDteenmania.com\r\n\r\nVideo\r\nID : 1\r\nFormat : AVC\r\nFormat/Info : Advanced Video Codec\r\nFormat profile : [email protected]\r\nFormat settings, CABAC : Yes\r\nFormat settings, ReFrames : 2 frames\r\nCodec ID : avc1\r\nCodec ID/Info : Advanced Video Coding\r\nDuration : 22mn 59s\r\nBit rate : 1 981 Kbps\r\nWidth : 1 280 pixels\r\nHeight : 720 pixels\r\nDisplay aspect ratio : 16:9\r\nFrame rate mode : Constant\r\nFrame rate : 25.000 fps\r\nColor space : YUV\r\nChroma subsampling : 4:2:0\r\nBit depth : 8 bits\r\nScan type : Progressive\r\nBits/(Pixel*Frame) : 0.086\r\nStream size : 326 MiB (93%)\r\nWriting library : x264 core 102 r1666 d058f37\r\nEncoding settings : cabac=1 / ref=2 / deblock=1:0:0 / analyse=0x3:0x113 / me=hex / subme=6 / psy=1 / psy_rd=1.00:0.00 / mixed_ref=0 / me_range=16 / chroma_me=1 / trellis=0 / 8x8dct=1 / cqm=0 / deadzone=21,11 / fast_pskip=1 / chroma_qp_offset=-2 / threads=24 / sliced_threads=0 / nr=0 / decimate=1 / interlaced=0 / constrained_intra=0 / bframes=3 / b_pyramid=0 / b_adapt=1 / b_bias=0 / direct=3 / weightb=1 / open_gop=0 / weightp=2 / keyint=250 / keyint_min=25 / scenecut=40 / intra_refresh=0 / rc_lookahead=40 / rc=crf / mbtree=1 / crf=20.0 / qcomp=0.60 / qpmin=10 / qpmax=51 / qpstep=4 / ip_ratio=1.41 / aq=1:1.00\r\n\r\nAudio\r\nID : 2\r\nFormat : AAC\r\nFormat/Info : Advanced Audio Codec\r\nFormat profile : LC\r\nCodec ID : 40\r\nDuration : 22mn 59s\r\nBit rate mode : Variable\r\nBit rate : 151 Kbps\r\nChannel(s) : 2 channels\r\nChannel positions : Front: L R\r\nSampling rate : 44.1 KHz\r\nCompression mode : Lossy\r\nDelay relative to video : 40ms\r\nStream size : 24.9 MiB (7%)\r\n\r\n