18OnlyGirls.com / WowFandom.com Luiza (Getting Analyzed)

Dreams-HD.com Nikka18XGirls.com Tori (aka Lola Taylor)

Posted in Amateur, HD Porn, Sex Movies, Teen | 16409 Views |


Rate this girl !!!




[18OnlyGirls.com / WowFandom.com] Luiza (Getting Analyzed / 31.10.14) [2014, Anal, Blowjob, Brunette, Creampie, Hardcore, Pussy Licking, Shaved Pussy, 1080p]\r\n\r\npic\r\n\r\nDuration: 00:18:25\r\nType HD video: 1080p\r\nVideo: MPEG4 Video (H264) 1920×1080 29.97fps 7524kbps\r\nAudio: AAC 44100Hz stereo 143kbps\r\n\r\n\r\n\r\nhttp://i64.fastpic.ru/big/2014/1101/8e/0381d3ae32fec6d2b1164c34bc06bc8e.jpg\r\n\r\n 



DOWNLOAD

Keep2share.cc - Uploaded.net - Openload.co - Rapidu.net


http://played.to/5un0yhgjfl8s

http://uploaded.net/file/8pkjrw20/Lu.iza_Ge.tt.ing_An.aly.zed_H.D10.80.mp4


Premium here:
uploaded.net
keep2share.cc
rapidu.net.cc


Teens related to 18OnlyGirls.com / WowFandom.com Luiza (Getting Analyzed)


Teens in Porno young porn videos and free teen sex 225503 ryushare uploaded keep2share

Teens in Porno young porn videos and free teen sex 225503

Sex videos hd for pc ryushare uploaded keep2share

Sex videos hd for pc

X-Art – Addison – No Turning Back ryushare uploaded keep2share

X-Art – Addison – No Turning Back

Nubiles-Porn.com Halle Von – Training To Please ryushare uploaded keep2share

Nubiles-Porn.com Halle Von – Training To Please

www xxx Bif videos HD ryushare uploaded keep2share

www xxx Bif videos HD

Nude Teens fucking hard Redhair amateur 4896 ryushare uploaded keep2share

Nude Teens fucking hard Redhair amateur 4896

Beautiful brunette teen fucking from behind Hd ryushare uploaded keep2share

Beautiful brunette teen fucking from behind Hd

Sex Teens porn movies 3718 ryushare uploaded keep2share

Sex Teens porn movies 3718

Small girls and boys porn 2528 ryushare uploaded keep2share

Small girls and boys porn 2528

The best Teen sex 225079 ryushare uploaded keep2share

The best Teen sex 225079

Hardcore sex videos in the high definition quality 224887 ryushare uploaded keep2share

Hardcore sex videos in the high definition quality 224887

Morgan Brooke – Very hot teen – Tease.Me ryushare uploaded keep2share

Morgan Brooke – Very hot teen – Tease.Me

[FuckStudies.com] Iren ryushare uploaded keep2share

[FuckStudies.com] Iren

Teen 18 Porn XXX Clips Naked 3189 ryushare uploaded keep2share

Teen 18 Porn XXX Clips Naked 3189

Great Girlish Enthusiasm ryushare uploaded keep2share

Great Girlish Enthusiasm

18 years girl xxx sex videos) 4656 ryushare uploaded keep2share

18 years girl xxx sex videos) 4656

worldsex com mp4 hd clip ryushare uploaded keep2share

worldsex com mp4 hd clip

xxx videoss of small mb dowwnload ryushare uploaded keep2share

xxx videoss of small mb dowwnload

Wow Girls Porn Clips download 225381 ryushare uploaded keep2share

Wow Girls Porn Clips download 225381

K Three Teasing Tongues 5 -B ryushare uploaded keep2share

K Three Teasing Tongues 5 -B

Watch Teen Sex Videos HD 225525 ryushare uploaded keep2share

Watch Teen Sex Videos HD 225525

X-Angels Licie ryushare uploaded keep2share

X-Angels Licie

Watch Teen Sex Videos HD 224956 ryushare uploaded keep2share

Watch Teen Sex Videos HD 224956

Teen porn movies 5617 ryushare uploaded keep2share

Teen porn movies 5617

High Definition Movies on HD 225588 ryushare uploaded keep2share

High Definition Movies on HD 225588

Teen sex xxx hd 4287 ryushare uploaded keep2share

Teen sex xxx hd 4287

Maddy O’Reilly – Heat wave ryushare uploaded keep2share

Maddy O’Reilly – Heat wave

Hd quality – Teen sex video 2401 ryushare uploaded keep2share

Hd quality – Teen sex video 2401

Young XXX Tube Videos 3807 ryushare uploaded keep2share

Young XXX Tube Videos 3807

Teens 1080p hd porn 3561 ryushare uploaded keep2share

Teens 1080p hd porn 3561

video porn massage porn ryushare uploaded keep2share

video porn massage porn

xxx vid sex hd18 www ryushare uploaded keep2share

xxx vid sex hd18 www

Nubiles-Porn.com Olivia Devine, Loving Touch ryushare uploaded keep2share

Nubiles-Porn.com Olivia Devine, Loving Touch

8 Teen XXX – Teen Sex 1972 ryushare uploaded keep2share

8 Teen XXX – Teen Sex 1972

www21SEXE TURY com ryushare uploaded keep2share

www21SEXE TURY com

Report broken links / Post a comment

You must be logged in to post a comment.



[18OnlyGirls.com / WowFandom.com] Luiza (Getting Analyzed / 31.10.14) [2014, Anal, Blowjob, Brunette, Creampie, Hardcore, Pussy Licking, Shaved Pussy, 1080p]\r\nGeneral\r\nComplete name : C:HD Teens Movies Young Downloads Online Clips Scenes 2DownloadsLuiza_Getting_Analyzed_HD1080.mp4\r\nFormat : MPEG-4\r\nFormat profile : Base Media\r\nCodec ID : isom\r\nFile size : 1 011 MiB\r\nDuration : 18mn 25s\r\nOverall bit rate mode : Variable\r\nOverall bit rate : 7 673 Kbps\r\nWriting application : Lavf52.64.2\r\n\r\nVideo\r\nID : 1\r\nFormat : AVC\r\nFormat/Info : Advanced Video Codec\r\nFormat profile : [email protected]\r\nFormat settings, CABAC : Yes\r\nFormat settings, ReFrames : 2 frames\r\nCodec ID : avc1\r\nCodec ID/Info : Advanced Video Coding\r\nDuration : 18mn 25s\r\nBit rate : 7 525 Kbps\r\nWidth : 1 920 pixels\r\nHeight : 1 080 pixels\r\nDisplay aspect ratio : 16:9\r\nFrame rate mode : Constant\r\nFrame rate : 29.970 fps\r\nColor space : YUV\r\nChroma subsampling : 4:2:0\r\nBit depth : 8 bits\r\nScan type : Progressive\r\nBits/(Pixel*Frame) : 0.121\r\nStream size : 991 MiB (98%)\r\nWriting library : x264 core 102 r1666 d058f37\r\nEncoding settings : cabac=1 / ref=2 / deblock=1:0:0 / analyse=0x3:0x113 / me=hex / subme=6 / psy=1 / psy_rd=1.00:0.00 / mixed_ref=0 / me_range=16 / chroma_me=1 / trellis=0 / 8x8dct=1 / cqm=0 / deadzone=21,11 / fast_pskip=1 / chroma_qp_offset=-2 / threads=24 / sliced_threads=0 / nr=0 / decimate=1 / interlaced=0 / constrained_intra=0 / bframes=3 / b_pyramid=0 / b_adapt=1 / b_bias=0 / direct=3 / weightb=1 / open_gop=0 / weightp=2 / keyint=250 / keyint_min=25 / scenecut=40 / intra_refresh=0 / rc_lookahead=40 / rc=crf / mbtree=1 / crf=20.0 / qcomp=0.60 / qpmin=10 / qpmax=51 / qpstep=4 / ip_ratio=1.41 / aq=1:1.00\r\n\r\nAudio\r\nID : 2\r\nFormat : AAC\r\nFormat/Info : Advanced Audio Codec\r\nFormat profile : LC\r\nCodec ID : 40\r\nDuration : 18mn 25s\r\nBit rate mode : Variable\r\nBit rate : 144 Kbps\r\nChannel count : 2 channels\r\nChannel positions : Front: L R\r\nSampling rate : 44.1 KHz\r\nCompression mode : Lossy\r\nStream size : 18.9 MiB (2%)\r\n\r\n